<?xml version="1.0" standalone="no"?>
<!DOCTYPE svg PUBLIC "-//W3C//DTD SVG 1.1//EN" "http://www.w3.org/Graphics/SVG/1.1/DTD/svg11.dtd">
<svg xmlns="http://www.w3.org/2000/svg">
<defs >
<font id="InstrumentSans" horiz-adv-x="564" ><font-face
    font-family="Instrument Sans"
    units-per-em="1000"
    panose-1="0 0 0 0 0 0 0 0 0 0"
    ascent="970"
    descent="-250"
    alphabetic="0" />
<glyph unicode=" " horiz-adv-x="200" />
<glyph unicode="!" horiz-adv-x="273" d="M105 210L93 740H179L167 210H105ZM85 0V103H188V0H85Z" />
<glyph unicode="&quot;" horiz-adv-x="384" d="M99 495L74 627Q70 647 68 664T66 695Q66 711 72 723T90 743T116 750Q131 750 142 743T160 724T166 695Q166 682 164 665T158 627L133 495H99ZM251 495L226 627Q222 647 220 664T218 695Q218 711 224 723T242 743T268
750Q283 750 294 743T312 724T318 695Q318 682 316 665T310 627L285 495H251Z" />
<glyph unicode="#" horiz-adv-x="716" d="M157 0L257 720H327L227 0H157ZM389 0L489 720H559L459 0H389ZM67 509H674V441H67V509ZM42 289H649V221H42V289Z" />
<glyph unicode="$" horiz-adv-x="608" d="M278 696V830H344V696H278ZM344 20V-109H278V20H344ZM330 -9Q204 -9 130 53T42 230H122Q133 147 185 105T329 63Q407 63 446 92T486 179Q486 228 459 257T375 305L254 347Q162 379 118 424T74 540Q74 598 103 640T185
707T308 731Q416 731 481 675T556 514H476Q463 589 423 624T306 659Q234 659 194 630T154 548Q154 503 182 476T269 429L398 384Q482 355 524 306T566 180Q566 90 505 41T330 -9Z" />
<glyph unicode="%" horiz-adv-x="786" d="M85 0L623 720H706L168 0H85ZM587 -10Q545 -10 508 10T448 71T425 175Q425 238 447 278T507 339T587 359Q632 359 669 339T729 279T751 175Q751 112 728 71T668 10T587 -10ZM587 45Q628 45 654 79T681 176Q681 238 655
271T587 304Q546 304 521 272T496 176Q496 112 521 79T587 45ZM197 361Q154 361 117 381T58 442T35 546Q35 609 57 649T117 710T197 730Q242 730 279 710T338 650T360 546Q360 483 337 442T277 381T197 361ZM197 416Q237 416 263 449T290 547Q290 609 264 642T197
675Q156 675 131 643T105 547Q105 483 130 450T197 416Z" />
<glyph unicode="&amp;" horiz-adv-x="755" d="M624 0L237 397Q204 432 183 461T152 517T142 572Q142 618 166 653T231 709T327 730Q379 730 421 711T488 656T513 572Q513 511 466 465T321 386L279 437Q356 456 395 489T435 569Q435 613 403 638T325 663Q281 663
252 639T222 570Q222 550 230 530T260 484T320 418L729 0H624ZM309 -10Q231 -10 172 17T81 93T48 207Q48 287 104 347T256 427L300 377Q244 365 206 343T149 288T129 214Q129 141 178 100T312 59Q375 59 423 81T506 145T557 249T575 388H654Q654 315 639 253T593
142T521 60T425 8T309 -10Z" />
<glyph unicode="&apos;" horiz-adv-x="232" d="M99 495L74 627Q70 647 68 664T66 695Q66 711 72 723T90 743T116 750Q131 750 142 743T160 724T166 695Q166 682 164 665T158 627L133 495H99Z" />
<glyph unicode="(" horiz-adv-x="406" d="M279 -110Q177 -17 129 94T80 320Q80 433 129 544T279 750H356Q255 656 205 549T154 320Q154 198 206 91T356 -110H279Z" />
<glyph unicode=")" horiz-adv-x="406" d="M127 754Q229 661 277 550T326 324Q326 211 277 100T127 -106H50Q151 -12 201 95T252 324Q252 446 200 553T50 754H127Z" />
<glyph unicode="*" horiz-adv-x="408" d="M168 437L189 562L86 482L50 543L172 588L50 634L86 695L189 615L168 740H240L219 615L322 695L358 634L236 588L358 543L322 482L219 562L240 437H168Z" />
<glyph unicode="+" horiz-adv-x="531" d="M231 153V590H301V153H231ZM60 337V405H471V337H60Z" />
<glyph unicode="," horiz-adv-x="255" d="M77 -144V-103Q106 -92 119 -69T132 3L163 0H77V102H178V21Q178 -43 154 -85T77 -144Z" />
<glyph unicode="-" horiz-adv-x="506" d="M80 234V310H426V234H80Z" />
<glyph unicode="." horiz-adv-x="255" d="M76 0V103H179V0H76Z" />
<glyph unicode="/" horiz-adv-x="443" d="M60 -60L313 750H383L130 -60H60Z" />
<glyph unicode="0" horiz-adv-x="666" d="M333 -10Q248 -10 185 37T86 169T50 363Q50 472 85 554T184 683T333 730Q418 730 481 684T580 555T616 363Q616 253 581 169T482 38T333 -10ZM333 62Q394 62 437 98T503 202T526 364Q526 457 504 523T438 623T333 658Q271
658 228 623T163 523T140 364Q140 270 163 202T229 98T333 62Z" />
<glyph unicode="1" horiz-adv-x="391" d="M225 0V638L246 633Q234 606 200 579T122 532T30 505V582Q77 590 120 610T196 658T246 720H305V0H225Z" />
<glyph unicode="2" horiz-adv-x="545" d="M40 0V70Q148 159 220 226T336 345T398 440T417 526Q417 588 380 623T278 658Q211 658 170 620T120 511H34Q44 609 109 669T284 730Q385 730 445 676T505 528Q505 477 486 426T422 319T305 196T125 43L106 72H517V0H40Z" />
<glyph unicode="3" horiz-adv-x="574" d="M296 -10Q224 -10 170 16T82 94T40 217H126Q137 142 181 102T297 62Q365 62 404 98T443 196Q443 261 405 301T303 342H213V412H300Q358 412 392 445T427 535Q427 594 391 626T292 658Q231 658 188 623T137 521H50Q56 585
88 631T173 704T294 730Q359 730 409 707T487 642T515 542Q515 491 492 452T430 391T339 369L333 390Q394 390 438 365T507 295T532 193Q532 133 502 87T419 16T296 -10Z" />
<glyph unicode="4" horiz-adv-x="600" d="M392 0V190L394 210V621H421L117 205L90 238H570V166H34V228L396 720H478V0H392Z" />
<glyph unicode="5" horiz-adv-x="574" d="M292 -10Q185 -10 121 47T43 197H131Q144 132 186 97T290 62Q354 62 398 102T443 229Q443 316 399 359T286 403Q237 403 201 383T153 336H79L112 720H492V648H161L189 678L166 388L147 395Q165 425 205 447T303 469Q370
469 421 440T502 358T532 229Q532 154 503 101T420 19T292 -10Z" />
<glyph unicode="6" horiz-adv-x="599" d="M314 -10Q187 -10 119 82T50 350Q50 471 82 556T176 685T321 730Q413 730 473 677T546 531H458Q449 593 413 625T320 658Q231 658 186 582T140 354V289L117 298Q126 345 157 380T234 434T333 454Q401 454 451 425T530
343T559 220Q559 151 528 99T442 19T314 -10ZM317 62Q385 62 427 105T469 221Q469 297 429 340T315 384Q245 384 199 343T152 230Q152 180 173 142T232 83T317 62Z" />
<glyph unicode="7" horiz-adv-x="532" d="M164 0Q178 170 243 336T440 677L445 648H24V720H510V660Q430 543 378 434T296 219T259 0H164Z" />
<glyph unicode="8" horiz-adv-x="582" d="M291 -10Q215 -10 160 17T74 91T44 196Q44 250 68 294T132 364T222 390L224 369Q178 369 141 391T83 453T62 539Q62 595 91 638T172 705T292 730Q360 730 411 706T491 638T520 540Q520 492 499 454T441 392T357 369L360
390Q410 390 450 364T514 294T538 196Q538 138 508 91T423 17T291 -10ZM291 62Q364 62 406 101T449 204Q449 268 407 305T291 342Q217 342 175 305T133 204Q133 140 175 101T291 62ZM291 412Q357 412 394 445T432 533Q432 590 393 624T291 658Q227 658 189 624T150
533Q150 478 188 445T291 412Z" />
<glyph unicode="9" horiz-adv-x="610" d="M288 -10Q225 -10 175 14T94 87T54 209H142Q152 131 191 97T290 62Q334 62 366 80T419 135T450 229T460 366V431L483 428Q474 382 443 347T366 292T267 272Q201 272 151 301T73 383T44 501Q44 571 75 622T161 701T289
730Q417 730 483 637T550 364Q550 244 520 161T431 34T288 -10ZM288 342Q357 342 402 381T448 493Q448 542 427 579T368 637T284 658Q217 658 176 616T134 499Q134 428 174 385T288 342Z" />
<glyph unicode=":" horiz-adv-x="255" d="M76 0V103H179V0H76ZM76 380V483H179V380H76Z" />
<glyph unicode=";" horiz-adv-x="255" d="M77 -144V-103Q106 -92 119 -69T132 3L163 0H77V102H178V21Q178 -43 154 -85T77 -144ZM76 380V483H179V380H76Z" />
<glyph unicode="&lt;" horiz-adv-x="531" d="M471 570V498L108 359V384L471 254V182L60 332V410L471 570Z" />
<glyph unicode="=" horiz-adv-x="531" d="M60 437V505H471V437H60ZM60 237V305H471V237H60Z" />
<glyph unicode="&gt;" horiz-adv-x="531" d="M60 172V244L423 383V358L60 488V560L471 410V332L60 172Z" />
<glyph unicode="?" horiz-adv-x="567" d="M253 210Q253 267 267 306T305 371T355 418T404 457T442 501T457 560Q457 613 416 645T304 678Q229 678 182 640T124 531H44Q51 598 85 647T177 723T307 750Q376 750 427 727T508 660T537 558Q537 511 522 480T484 427T433
386T383 345T344 291T329 210H253ZM239 0V103H342V0H239Z" />
<glyph unicode="@" horiz-adv-x="853" d="M430 -10Q315 -10 230 32T97 149T50 327Q50 412 80 485T167 614T299 699T467 730Q567 730 642 692T760 587T803 431Q803 374 787 324T741 235T674 174T593 152Q562 152 540 166T510 210T516 280L520 244Q494 200 456 176T373
152Q306 152 264 199T221 323Q221 374 237 419T281 498T347 551T426 571Q486 571 522 537T558 445L546 446L574 553H653L583 281Q574 246 581 229T612 212Q636 212 658 229T698 277T726 345T737 425Q737 498 703 552T608 637T465 668Q388 668 324 642T214 570T142
462T116 329Q116 245 153 183T259 87T428 52Q483 52 537 64T638 100L663 46Q620 21 559 6T430 -10ZM399 219Q425 219 448 233T490 271T518 327T529 393Q529 443 503 473T432 504Q406 504 383 491T341 455T313 400T303 332Q303 280 329 250T399 219Z" />
<glyph unicode="A" horiz-adv-x="728" d="M36 0L314 720H386L115 0H36ZM608 0L337 720H414L692 0H608ZM174 291H550V219H174V291Z" />
<glyph unicode="B" horiz-adv-x="636" d="M140 0V68H370Q436 68 475 104T514 201Q514 266 473 305T363 344H140V410H352Q420 410 458 443T496 536Q496 592 461 622T357 652H140V720H364Q463 720 520 673T578 545Q578 494 555 454T492 392T400 369L405 390Q460
390 503 364T572 294T598 192Q598 135 571 92T493 24T377 0H140ZM86 0V720H168V0H86Z" />
<glyph unicode="C" horiz-adv-x="741" d="M391 -10Q317 -10 255 17T146 94T75 211T50 360Q50 441 75 508T145 625T253 702T390 730Q471 730 535 697T641 604T693 464H611Q599 553 541 604T391 656Q314 656 256 619T166 515T134 360Q134 272 166 206T256 102T390
64Q483 64 542 116T613 256H695Q685 176 644 116T538 23T391 -10Z" />
<glyph unicode="D" horiz-adv-x="752" d="M135 0V72H328Q418 72 483 108T583 211T618 364Q618 450 583 514T484 613T328 648H135V720H328Q441 720 525 676T655 551T702 362Q702 254 655 173T525 46T329 0H135ZM86 0V720H168V0H86Z" />
<glyph unicode="E" horiz-adv-x="638" d="M86 0V720H168V0H86ZM128 0V72H568V0H128ZM128 339V411H532V339H128ZM128 648V720H560V648H128Z" />
<glyph unicode="F" horiz-adv-x="602" d="M86 0V720H168V0H86ZM128 309V381H516V309H128ZM128 648V720H544V648H128Z" />
<glyph unicode="G" horiz-adv-x="765" d="M410 -10Q300 -10 219 35T94 161T50 354Q50 465 93 549T214 682T393 730Q472 730 536 700T642 617T693 494H611Q601 568 543 612T396 656Q317 656 258 619T167 514T134 356Q134 265 167 200T264 99T417 64Q478 64 526
81T613 136L695 106Q640 48 569 19T410 -10ZM613 106V339L644 308H416V380H695V106H613Z" />
<glyph unicode="H" horiz-adv-x="736" d="M86 0V720H168V0H86ZM568 0V720H650V0H568ZM128 411H604V339H128V411Z" />
<glyph unicode="I" horiz-adv-x="254" d="M86 0V720H168V0H86Z" />
<glyph unicode="J" horiz-adv-x="455" d="M144 -10Q106 -10 71 -5T20 9V85Q44 75 78 69T147 62Q219 62 256 94T293 192V720H375V189Q375 89 316 40T144 -10Z" />
<glyph unicode="K" horiz-adv-x="692" d="M86 0V720H168V0H86ZM159 374L533 720H648L266 374H159ZM549 0L157 374H266L668 0H549Z" />
<glyph unicode="L" horiz-adv-x="588" d="M86 0V720H168V0H86ZM128 0V72H538V0H128Z" />
<glyph unicode="M" horiz-adv-x="906" d="M86 0V720H212L472 26H434L692 720H820V0H739V677H750L499 0H401L150 671H161V0H86Z" />
<glyph unicode="N" horiz-adv-x="736" d="M86 0V720H171L584 114L572 112V720H650V0H565L152 606L164 608V0H86Z" />
<glyph unicode="O" horiz-adv-x="786" d="M393 -10Q318 -10 256 17T147 95T76 214T50 363Q50 470 94 553T215 683T392 730Q493 730 570 683T692 553T736 362Q736 281 711 213T639 95T530 18T393 -10ZM392 64Q469 64 527 102T619 209T652 364Q652 450 620 516T529
619T392 656Q314 656 256 619T166 517T134 364Q134 276 166 209T257 103T392 64Z" />
<glyph unicode="P" horiz-adv-x="656" d="M86 0V720H372Q449 720 503 695T585 623T614 510Q614 444 586 397T503 323T372 297H146V369H369Q449 369 490 405T532 510Q532 578 491 613T369 648H168V0H86Z" />
<glyph unicode="Q" horiz-adv-x="787" d="M411 -10Q298 -10 217 38T93 170T50 363Q50 470 94 553T215 683T392 730Q493 730 570 683T692 553T736 362Q736 282 709 214T630 99T501 37L411 -10ZM392 60Q471 60 529 99T619 208T652 364Q652 450 620 516T529 619T392
656Q314 656 256 619T166 517T134 364Q134 276 166 208T257 100T392 60ZM411 -10L393 44L763 72V0Q702 0 661 -1T584 -5T509 -8T411 -10Z" />
<glyph unicode="R" horiz-adv-x="656" d="M86 0V720H352Q429 720 483 695T565 626T594 520Q594 459 566 414T483 343T352 317H146V389H349Q429 389 470 424T512 520Q512 580 471 614T349 648H168V0H86ZM508 0L125 357H237L632 0H508Z" />
<glyph unicode="S" horiz-adv-x="608" d="M330 -9Q204 -9 130 53T42 230H122Q133 147 185 105T329 63Q407 63 446 92T486 179Q486 228 459 257T375 305L254 347Q162 379 118 424T74 540Q74 598 103 640T185 707T308 731Q416 731 481 675T556 514H476Q463 589 423
624T306 659Q234 659 194 630T154 548Q154 503 182 476T269 429L398 384Q482 355 524 306T566 180Q566 90 505 41T330 -9Z" />
<glyph unicode="T" horiz-adv-x="648" d="M283 0V648H36V720H612V648H365V0H283Z" />
<glyph unicode="U" horiz-adv-x="712" d="M355 -10Q225 -10 153 69T80 292V720H162V288Q162 180 212 122T355 64Q450 64 500 121T550 288V720H632V291Q632 149 559 70T355 -10Z" />
<glyph unicode="V" horiz-adv-x="728" d="M314 0L36 720H124L382 36H352L609 720H692L414 0H314Z" />
<glyph unicode="W" horiz-adv-x="1089" d="M263 0L50 720H134L325 55H310L497 720H597L785 55H770L960 720H1039L826 0H726L539 645H551L363 0H263Z" />
<glyph unicode="X" horiz-adv-x="688" d="M552 0L318 337L53 720H149L370 401L648 0H552ZM329 398L559 720H648L373 333L329 398ZM361 329L127 0H38L317 394L361 329Z" />
<glyph unicode="Y" horiz-adv-x="676" d="M297 0V326L24 720H124L361 374H323L560 720H652L379 326V0H297Z" />
<glyph unicode="Z" horiz-adv-x="623" d="M60 0V62L483 689L513 648H70V720H559V658L136 31L106 72H569V0H60Z" />
<glyph unicode="[" horiz-adv-x="406" d="M90 -108V750H346V686H164V-44H346V-108H90Z" />
<glyph unicode="\" horiz-adv-x="443" d="M60 750H130L383 -60H313L60 750Z" />
<glyph unicode="]" horiz-adv-x="406" d="M316 750V-108H60V-44H242V686H60V750H316Z" />
<glyph unicode="^" horiz-adv-x="531" d="M139 491H75L228 740H303L456 491H392L245 699H286L139 491Z" />
<glyph unicode="_" horiz-adv-x="426" d="M0 -118V-50H426V-118H0Z" />
<glyph unicode="`" horiz-adv-x="354" d="M220 583L60 740H183L296 583H220Z" />
<glyph unicode="a" horiz-adv-x="533" d="M393 0Q389 17 388 39T386 95H381V339Q381 397 355 424T269 452Q211 452 177 429T138 362H61Q66 436 123 478T272 520Q367 520 413 475T459 340V95Q459 73 462 50T470 0H393ZM218 -10Q139 -10 93 28T46 134Q46 201 92
238T226 290L404 320V254L238 228Q182 219 153 198T124 137Q124 98 150 78T229 58Q296 58 338 88T381 168L394 97Q378 46 332 18T218 -10Z" />
<glyph unicode="b" horiz-adv-x="606" d="M332 -9Q260 -9 211 26T144 125L155 127V0H80V720H160V391L149 394Q168 453 218 486T339 520Q407 520 457 487T536 395T564 257Q564 177 535 117T454 24T332 -9ZM320 61Q396 61 439 113T482 257Q482 347 439 398T320 450Q244
450 200 398T156 254Q156 165 200 113T320 61Z" />
<glyph unicode="c" horiz-adv-x="533" d="M282 -10Q212 -10 158 24T72 119T40 257Q40 334 71 393T157 486T281 520Q338 520 383 498T458 436T496 341H422Q412 390 376 421T283 452Q234 452 198 428T142 360T122 257Q122 198 142 153T198 83T284 58Q339 58 376
88T423 168H497Q488 115 458 75T382 12T282 -10Z" />
<glyph unicode="d" horiz-adv-x="606" d="M451 0V119L461 116Q442 58 392 24T271 -10Q202 -10 151 23T71 115T42 253Q42 333 71 393T152 486T274 519Q346 519 395 484T462 385L446 383V720H526V0H451ZM286 60Q363 60 406 112T450 256Q450 345 406 397T286 449Q210
449 167 397T124 253Q124 163 167 112T286 60Z" />
<glyph unicode="e" d="M289 -10Q216 -10 160 24T72 119T40 257Q40 335 71 394T160 487T291 520Q362 520 414 489T495 402T524 270Q524 260 524 251T521 231H100V298H472L446 261Q446 353 406 402T291 452Q215 452 169 400T122 258Q122 167 168 113T293 58Q342
58 379 79T433 141H509Q484 71 426 31T289 -10Z" />
<glyph unicode="f" horiz-adv-x="354" d="M122 0V582Q122 652 162 691T286 730Q306 730 317 728T337 723V660Q330 662 318 664T291 666Q245 666 224 643T202 578V0H122ZM17 442V510H326V442H17Z" />
<glyph unicode="g" horiz-adv-x="606" d="M283 -215Q192 -215 132 -173T58 -60H134Q145 -100 183 -123T288 -147Q366 -147 406 -105T446 20V129L456 127Q439 69 388 35T267 0Q200 0 149 32T70 123T42 258Q42 336 71 395T152 486T275 519Q347 519 395 484T460 384L451
383V510H526V20Q526 -89 461 -152T283 -215ZM287 69Q362 69 406 121T450 262Q450 349 406 399T287 450Q211 450 168 399T124 259Q124 172 168 121T287 69Z" />
<glyph unicode="h" horiz-adv-x="599" d="M80 0V720H160V0H80ZM445 0V334Q445 392 416 421T330 450Q280 450 242 428T182 367T160 276L147 397Q173 454 226 487T348 520Q428 520 476 475T525 355V0H445Z" />
<glyph unicode="i" horiz-adv-x="240" d="M80 0V510H160V0H80ZM74 626V720H166V626H74Z" />
<glyph unicode="j" horiz-adv-x="240" d="M16 -215Q-3 -215 -15 -213T-35 -208V-145Q-28 -147 -16 -149T11 -151Q50 -151 65 -134T80 -83V510H160V-87Q160 -149 126 -182T16 -215ZM74 626V720H166V626H74Z" />
<glyph unicode="k" horiz-adv-x="535" d="M80 0V740H160V0H80ZM413 0L142 265L403 510H513L220 242L225 289L523 0H413Z" />
<glyph unicode="l" horiz-adv-x="240" d="M80 0V720H160V0H80Z" />
<glyph unicode="m" horiz-adv-x="922" d="M80 0V510H155V390H160V0H80ZM424 0V338Q424 396 398 423T323 450Q277 450 240 428T182 367T160 276L147 397Q173 454 225 487T338 520Q412 520 458 477T504 359V0H424ZM768 0V338Q768 396 742 423T667 450Q621 450 584
428T526 367T504 276L484 397Q510 454 564 487T680 520Q754 520 801 477T848 359V0H768Z" />
<glyph unicode="n" horiz-adv-x="599" d="M80 0V510H155V390H160V0H80ZM445 0V334Q445 392 416 421T330 450Q280 450 242 428T182 367T160 276L147 397Q173 454 226 487T348 520Q428 520 476 475T525 355V0H445Z" />
<glyph unicode="o" horiz-adv-x="584" d="M292 -10Q217 -10 160 25T72 120T40 257Q40 334 72 393T160 486T292 520Q368 520 424 486T512 393T544 257Q544 181 513 121T425 25T292 -10ZM292 58Q344 58 382 83T441 154T462 258Q462 346 416 399T292 452Q216 452
169 399T122 258Q122 199 143 154T202 84T292 58Z" />
<glyph unicode="p" horiz-adv-x="606" d="M332 -9Q260 -9 211 26T144 125L160 127V-205H80V510H155V391L144 394Q163 453 216 486T339 520Q407 520 457 487T536 395T564 257Q564 177 535 117T454 24T332 -9ZM320 61Q396 61 439 113T482 257Q482 347 439 398T320
450Q244 450 200 398T156 254Q156 165 200 113T320 61Z" />
<glyph unicode="q" horiz-adv-x="606" d="M446 -205V119L461 116Q442 58 392 24T271 -10Q202 -10 151 22T71 114T42 253Q42 333 71 393T152 486T274 519Q346 519 395 484T462 385L451 383V510H526V-205H446ZM286 60Q363 60 406 112T450 256Q450 345 406 397T286
449Q210 449 167 397T124 253Q124 163 167 112T286 60Z" />
<glyph unicode="r" horiz-adv-x="375" d="M80 0V510H155V380H160V0H80ZM160 266L147 387Q165 452 211 486T317 520Q342 520 351 516V439Q346 441 337 441T315 442Q239 442 200 397T160 266Z" />
<glyph unicode="s" horiz-adv-x="473" d="M253 -10Q159 -10 103 33T39 157H116Q123 108 159 82T255 56Q308 56 338 76T368 133Q368 159 351 178T283 211L201 232Q131 250 96 287T61 377Q61 443 110 481T243 520Q326 520 378 480T437 369H360Q353 410 322 432T240
454Q191 454 164 436T137 383Q137 357 156 338T222 306L302 284Q373 265 409 226T445 132Q445 65 394 28T253 -10Z" />
<glyph unicode="t" horiz-adv-x="377" d="M284 -9Q199 -9 161 29T122 141V629L202 659V142Q202 99 224 79T296 59Q316 59 330 61T354 68V0Q344 -4 326 -6T284 -9ZM17 442V510H354V442H17Z" />
<glyph unicode="u" horiz-adv-x="589" d="M246 -10Q196 -10 157 10T96 68T74 155V510H154V176Q154 118 182 89T264 60Q312 60 349 82T407 143T429 234L442 113Q417 56 364 23T246 -10ZM434 0V120H429V510H509V0H434Z" />
<glyph unicode="v" horiz-adv-x="523" d="M229 0L18 510H104L280 54H248L423 510H505L294 0H229Z" />
<glyph unicode="w" horiz-adv-x="767" d="M184 0L28 510H109L229 73H209L353 510H418L563 73H543L662 510H739L583 0H518L374 427H395L249 0H184Z" />
<glyph unicode="x" horiz-adv-x="551" d="M426 0L257 237L55 510H148L304 291L519 0H426ZM262 287L422 510H512L304 233L262 287ZM296 232L123 0H32L257 289L296 232Z" />
<glyph unicode="y" horiz-adv-x="523" d="M124 -205L238 60L256 88L423 510H505L209 -205H124ZM247 -5L18 510H106L303 49L247 -5Z" />
<glyph unicode="z" horiz-adv-x="496" d="M54 0V58L364 479L394 442H64V510H440V452L130 31L100 68H450V0H54Z" />
<glyph unicode="{" horiz-adv-x="406" d="M260 -108Q206 -108 173 -87T128 -29T124 48L155 201Q165 248 148 268T87 289H40V353H87Q130 353 147 373T155 441L124 594Q116 636 127 671T172 728T260 750H346V686H264Q224 686 207 664T199 597L228 461Q241 401 223
369T167 321Q205 306 223 274T228 181L199 45Q189 1 206 -21T264 -44H346V-108H260Z" />
<glyph unicode="|" horiz-adv-x="242" d="M86 -130V790H156V-130H86Z" />
<glyph unicode="}" horiz-adv-x="406" d="M146 750Q201 750 234 729T279 672T282 594L251 441Q241 394 258 374T319 353H366V289H319Q276 289 259 269T251 201L282 48Q291 7 279 -29T234 -86T146 -108H60V-44H142Q183 -44 200 -22T207 45L178 181Q165 241 183
273T239 321Q201 336 183 368T178 461L207 597Q217 641 200 663T142 686H60V750H146Z" />
<glyph unicode="~" horiz-adv-x="531" d="M382 296Q420 296 446 309T488 347T509 409H454Q450 382 433 370T390 358Q363 358 336 367T279 388T217 410T148 419Q111 419 85 406T44 368T22 306H77Q82 333 99 345T141 357Q169 357 196 348T252 327T313 305T382 296Z" />
<glyph unicode="&#xa0;" horiz-adv-x="200" />
<glyph unicode="&#xa1;" horiz-adv-x="273" d="M93 -205L105 300H167L179 -205H93ZM188 510V407H85V510H188Z" />
<glyph unicode="&#xa2;" horiz-adv-x="533" d="M247 482V616H312V482H247ZM312 20V-109H247V20H312ZM282 -10Q212 -10 158 24T72 119T40 257Q40 334 71 393T157 486T281 520Q338 520 383 498T458 436T496 341H422Q412 390 376 421T283 452Q234 452 198 428T142
360T122 257Q122 198 142 153T198 83T284 58Q339 58 376 88T423 168H497Q488 115 458 75T382 12T282 -10Z" />
<glyph unicode="&#xa3;" horiz-adv-x="588" d="M56 0V72Q103 143 121 192T139 279Q139 315 128 343T101 398T75 456T63 531Q63 590 89 635T167 705T294 730Q368 730 420 705T502 635T538 531H458Q448 595 406 626T297 658Q222 658 183 623T143 528Q143 495 154
467T179 411T205 353T216 284Q216 239 193 180T106 37L105 72H518V0H56ZM22 309V377H443V309H22Z" />
<glyph unicode="&#xa5;" horiz-adv-x="616" d="M267 0V326L24 720H124L331 374H293L500 720H592L349 326V0H267ZM52 252V320H564V252H52ZM260 402H52V470H224L260 402ZM407 470H564V402H363L407 470Z" />
<glyph unicode="&#xa7;" horiz-adv-x="498" d="M264 173L266 229Q319 229 349 252T379 313Q379 347 360 368T294 401L194 427Q137 441 105 481T72 581Q72 647 121 688T254 730Q337 730 389 690T448 579H371Q364 620 333 642T251 664Q202 664 175 643T148 587Q148
553 167 531T233 496L313 474Q384 455 420 415T456 312Q456 245 405 209T264 173ZM244 -75Q161 -75 110 -35T50 76H127Q134 35 165 13T247 -9Q297 -9 323 12T350 68Q350 102 331 124T265 159L185 181Q114 201 78 241T42 343Q42 411 93 446T234 482L232 426Q179
426 149 403T119 342Q119 308 138 287T204 254L304 228Q361 214 393 174T426 74Q426 8 377 -33T244 -75Z" />
<glyph unicode="&#xa8;" horiz-adv-x="441" d="M289 626V720H381V626H289ZM60 626V720H152V626H60Z" />
<glyph unicode="&#xa9;" horiz-adv-x="850" d="M425 -15Q347 -15 279 14T160 94T79 214T50 360Q50 438 79 506T159 625T279 706T425 735Q503 735 571 706T690 626T771 506T800 360Q800 282 771 214T691 95T571 14T425 -15ZM425 23Q494 23 555 49T662 122T734 230T760
360Q760 429 734 490T662 597T555 670T425 697Q356 697 295 671T188 598T116 490T90 360Q90 291 116 230T188 123T295 50T425 23ZM427 140Q368 140 322 168T250 246T224 360Q224 424 250 473T322 551T426 580Q498 580 547 537T607 422H558Q551 475 516 505T427
536Q358 536 316 487T274 360Q274 281 316 233T426 184Q482 184 517 215T559 298H608Q598 226 549 183T427 140Z" />
<glyph unicode="&#xaa;" horiz-adv-x="371" d="M247 418Q244 429 243 443T242 477H239V621Q239 650 225 664T181 679Q153 679 136 667T115 635H55Q59 679 93 704T183 730Q242 730 271 702T301 620V477Q301 461 303 447T308 418H247ZM144 412Q99 412 73 435T46
498Q46 537 72 561T154 595L252 612V566L164 551Q138 547 123 537T108 504Q108 484 121 474T160 463Q194 463 216 480T239 524L247 478Q235 444 207 428T144 412Z" />
<glyph unicode="&#xab;" horiz-adv-x="494" d="M187 68L55 251L187 434H269L141 251L269 68H187ZM347 68L215 251L347 434H429L301 251L429 68H347Z" />
<glyph unicode="&#xae;" horiz-adv-x="850" d="M425 -15Q347 -15 279 14T160 94T79 214T50 360Q50 438 79 506T159 625T279 706T425 735Q503 735 571 706T690 626T771 506T800 360Q800 282 771 214T691 95T571 14T425 -15ZM425 23Q494 23 555 49T662 122T734 230T760
360Q760 429 734 490T662 597T555 670T425 697Q356 697 295 671T188 598T116 490T90 360Q90 291 116 230T188 123T295 50T425 23ZM285 145V575H444Q511 575 550 544T589 458Q589 370 474 345L480 361Q527 363 554 338T582 267V196Q582 185 583 173T587 145H537Q535
154 534 167T533 196V257Q533 296 511 316T447 337H321V377H442Q489 377 514 398T540 456Q540 493 515 512T442 532H334V145H285Z" />
<glyph unicode="&#xaf;" horiz-adv-x="411" d="M60 642V700H406V642H60Z" />
<glyph unicode="&#xb0;" horiz-adv-x="386" d="M194 449Q154 449 121 468T69 521T50 593Q50 632 69 664T121 716T194 735Q235 735 267 716T317 665T336 593Q336 554 318 521T267 469T194 449ZM194 500Q232 500 258 527T284 593Q284 631 258 657T194 684Q154 684
128 658T102 593Q102 554 128 527T194 500Z" />
<glyph unicode="&#xb4;" horiz-adv-x="354" d="M136 583H60L173 740H296L136 583Z" />
<glyph unicode="&#xb6;" horiz-adv-x="711" d="M358 -130V326H238Q181 326 137 350T67 419T42 520Q42 579 67 624T137 694T241 720H625V-130H558V656H425V-130H358Z" />
<glyph unicode="&#xb7;" horiz-adv-x="103" d="M0 335V438H103V335H0Z" />
<glyph unicode="&#xb8;" horiz-adv-x="301" d="M178 -215Q126 -215 94 -191T60 -126H116Q118 -146 137 -154T180 -163Q203 -163 219 -155T236 -130Q236 -113 217 -101T141 -87L166 12H224L207 -44Q256 -54 275 -77T295 -130Q295 -171 263 -193T178 -215Z" />
<glyph unicode="&#xba;" horiz-adv-x="414" d="M207 412Q160 412 125 433T70 490T50 572Q50 642 93 686T207 730Q278 730 321 686T364 572Q364 503 321 458T207 412ZM207 465Q249 465 274 495T300 573Q300 620 275 648T207 677Q166 677 140 649T114 573Q114 525
140 495T207 465Z" />
<glyph unicode="&#xbb;" horiz-adv-x="494" d="M307 434L439 251L307 68H225L353 251L225 434H307ZM147 434L279 251L147 68H65L193 251L65 434H147Z" />
<glyph unicode="&#xbf;" horiz-adv-x="567" d="M260 -215Q195 -215 143 -194T61 -133T30 -33Q30 14 45 45T83 98T134 138T184 177T223 227T238 300H314Q314 247 300 212T262 153T212 110T163 72T125 29T110 -33Q110 -85 154 -114T263 -143Q331 -143 381 -111T443
-16H523Q516 -78 480 -122T386 -191T260 -215ZM328 510V407H225V510H328Z" />
<glyph unicode="&#xc0;" horiz-adv-x="728" d="M36 0L314 720H386L115 0H36ZM608 0L337 720H414L692 0H608ZM174 291H550V219H174V291ZM368 793L208 950H331L444 793H368Z" />
<glyph unicode="&#xc1;" horiz-adv-x="728" d="M36 0L314 720H386L115 0H36ZM608 0L337 720H414L692 0H608ZM174 291H550V219H174V291ZM360 793H284L397 950H520L360 793Z" />
<glyph unicode="&#xc2;" horiz-adv-x="728" d="M36 0L314 720H386L115 0H36ZM608 0L337 720H414L692 0H608ZM174 291H550V219H174V291ZM179 793L321 950H407L549 793H474L324 930H404L254 793H179Z" />
<glyph unicode="&#xc3;" horiz-adv-x="728" d="M36 0L314 720H386L115 0H36ZM608 0L337 720H414L692 0H608ZM174 291H550V219H174V291ZM441 803Q411 803 390 813T351 837T317 861T282 872Q262 872 248 858T234 813H176Q176 851 190 877T231 918T290 932Q321 932
342 922T379 898T410 874T445 863Q466 863 480 877T494 922H552Q552 886 538 859T498 818T441 803Z" />
<glyph unicode="&#xc4;" horiz-adv-x="728" d="M36 0L314 720H386L115 0H36ZM608 0L337 720H414L692 0H608ZM174 291H550V219H174V291ZM432 836V930H524V836H432ZM203 836V930H295V836H203Z" />
<glyph unicode="&#xc5;" horiz-adv-x="728" d="M36 0L314 720H386L115 0H36ZM608 0L337 720H414L692 0H608ZM174 291H550V219H174V291ZM364 771Q318 771 287 802T256 879Q256 923 287 954T364 986Q410 986 440 955T471 879Q471 834 441 803T364 771ZM364 821Q388
821 403 838T419 879Q419 902 404 919T364 936Q339 936 324 919T308 879Q308 855 323 838T364 821Z" />
<glyph unicode="&#xc6;" horiz-adv-x="936" d="M36 0L314 720H386L115 0H36ZM474 0V720H556V0H474ZM516 0V72H866V0H516ZM221 339V411H830V339H221ZM337 648V720H858V648H337Z" />
<glyph unicode="&#xc7;" horiz-adv-x="741" d="M391 -10Q317 -10 255 17T146 94T75 211T50 360Q50 441 75 508T145 625T253 702T390 730Q471 730 535 697T641 604T693 464H611Q599 553 541 604T391 656Q314 656 256 619T166 515T134 360Q134 272 166 206T256 102T390
64Q483 64 542 116T613 256H695Q685 176 644 116T538 23T391 -10ZM379 -215Q327 -215 295 -191T261 -126H317Q319 -146 338 -154T381 -163Q404 -163 420 -155T437 -130Q437 -113 418 -101T342 -87L367 12H425L408 -44Q457 -54 476 -77T496 -130Q496 -171 464 -193T379
-215Z" />
<glyph unicode="&#xc8;" horiz-adv-x="638" d="M86 0V720H168V0H86ZM128 0V72H568V0H128ZM128 339V411H532V339H128ZM128 648V720H560V648H128ZM333 793L173 950H296L409 793H333Z" />
<glyph unicode="&#xc9;" horiz-adv-x="638" d="M86 0V720H168V0H86ZM128 0V72H568V0H128ZM128 339V411H532V339H128ZM128 648V720H560V648H128ZM325 793H249L362 950H485L325 793Z" />
<glyph unicode="&#xca;" horiz-adv-x="638" d="M86 0V720H168V0H86ZM128 0V72H568V0H128ZM128 339V411H532V339H128ZM128 648V720H560V648H128ZM144 793L286 950H372L514 793H439L289 930H369L219 793H144Z" />
<glyph unicode="&#xcb;" horiz-adv-x="638" d="M86 0V720H168V0H86ZM128 0V72H568V0H128ZM128 339V411H532V339H128ZM128 648V720H560V648H128ZM397 836V930H489V836H397ZM168 836V930H260V836H168Z" />
<glyph unicode="&#xcc;" horiz-adv-x="254" d="M86 0V720H168V0H86ZM131 793L-29 950H94L207 793H131Z" />
<glyph unicode="&#xcd;" horiz-adv-x="254" d="M86 0V720H168V0H86ZM123 793H47L160 950H283L123 793Z" />
<glyph unicode="&#xce;" horiz-adv-x="254" d="M86 0V720H168V0H86ZM-58 793L84 950H170L312 793H237L87 930H167L17 793H-58Z" />
<glyph unicode="&#xcf;" horiz-adv-x="254" d="M86 0V720H168V0H86ZM195 836V930H287V836H195ZM-34 836V930H58V836H-34Z" />
<glyph unicode="&#xd0;" horiz-adv-x="752" d="M0 326V394H377V326H0ZM135 0V72H328Q418 72 483 108T583 211T618 364Q618 450 583 514T484 613T328 648H135V720H328Q441 720 525 676T655 551T702 362Q702 254 655 173T525 46T329 0H135ZM86 0V720H168V0H86Z" />
<glyph unicode="&#xd1;" horiz-adv-x="736" d="M86 0V720H171L584 114L572 112V720H650V0H565L152 606L164 608V0H86ZM445 803Q415 803 394 813T355 837T321 861T286 872Q266 872 252 858T238 813H180Q180 851 194 877T235 918T294 932Q325 932 346 922T383 898T414
874T449 863Q470 863 484 877T498 922H556Q556 886 542 859T502 818T445 803Z" />
<glyph unicode="&#xd2;" horiz-adv-x="786" d="M393 -10Q318 -10 256 17T147 95T76 214T50 363Q50 470 94 553T215 683T392 730Q493 730 570 683T692 553T736 362Q736 281 711 213T639 95T530 18T393 -10ZM392 64Q469 64 527 102T619 209T652 364Q652 450 620
516T529 619T392 656Q314 656 256 619T166 517T134 364Q134 276 166 209T257 103T392 64ZM397 793L237 950H360L473 793H397Z" />
<glyph unicode="&#xd3;" horiz-adv-x="786" d="M393 -10Q318 -10 256 17T147 95T76 214T50 363Q50 470 94 553T215 683T392 730Q493 730 570 683T692 553T736 362Q736 281 711 213T639 95T530 18T393 -10ZM392 64Q469 64 527 102T619 209T652 364Q652 450 620
516T529 619T392 656Q314 656 256 619T166 517T134 364Q134 276 166 209T257 103T392 64ZM389 793H313L426 950H549L389 793Z" />
<glyph unicode="&#xd4;" horiz-adv-x="786" d="M393 -10Q318 -10 256 17T147 95T76 214T50 363Q50 470 94 553T215 683T392 730Q493 730 570 683T692 553T736 362Q736 281 711 213T639 95T530 18T393 -10ZM392 64Q469 64 527 102T619 209T652 364Q652 450 620
516T529 619T392 656Q314 656 256 619T166 517T134 364Q134 276 166 209T257 103T392 64ZM208 793L350 950H436L578 793H503L353 930H433L283 793H208Z" />
<glyph unicode="&#xd5;" horiz-adv-x="786" d="M393 -10Q318 -10 256 17T147 95T76 214T50 363Q50 470 94 553T215 683T392 730Q493 730 570 683T692 553T736 362Q736 281 711 213T639 95T530 18T393 -10ZM392 64Q469 64 527 102T619 209T652 364Q652 450 620
516T529 619T392 656Q314 656 256 619T166 517T134 364Q134 276 166 209T257 103T392 64ZM470 803Q440 803 419 813T380 837T346 861T311 872Q291 872 277 858T263 813H205Q205 851 219 877T260 918T319 932Q350 932 371 922T408 898T439 874T474 863Q495 863 509
877T523 922H581Q581 886 567 859T527 818T470 803Z" />
<glyph unicode="&#xd6;" horiz-adv-x="786" d="M393 -10Q318 -10 256 17T147 95T76 214T50 363Q50 470 94 553T215 683T392 730Q493 730 570 683T692 553T736 362Q736 281 711 213T639 95T530 18T393 -10ZM392 64Q469 64 527 102T619 209T652 364Q652 450 620
516T529 619T392 656Q314 656 256 619T166 517T134 364Q134 276 166 209T257 103T392 64ZM461 836V930H553V836H461ZM232 836V930H324V836H232Z" />
<glyph unicode="&#xd7;" horiz-adv-x="531" d="M416 173L67 522L115 570L464 221L416 173ZM115 173L67 221L416 570L464 522L115 173Z" />
<glyph unicode="&#xd8;" horiz-adv-x="786" d="M112 -10L62 31L674 730L724 689L112 -10ZM393 -10Q318 -10 256 17T147 95T76 214T50 363Q50 470 94 553T215 683T392 730Q493 730 570 683T692 553T736 362Q736 281 711 213T639 95T530 18T393 -10ZM392 64Q469
64 527 102T619 209T652 364Q652 450 620 516T529 619T392 656Q314 656 256 619T166 517T134 364Q134 276 166 209T257 103T392 64Z" />
<glyph unicode="&#xd9;" horiz-adv-x="712" d="M355 -10Q225 -10 153 69T80 292V720H162V288Q162 180 212 122T355 64Q450 64 500 121T550 288V720H632V291Q632 149 559 70T355 -10ZM360 793L200 950H323L436 793H360Z" />
<glyph unicode="&#xda;" horiz-adv-x="712" d="M355 -10Q225 -10 153 69T80 292V720H162V288Q162 180 212 122T355 64Q450 64 500 121T550 288V720H632V291Q632 149 559 70T355 -10ZM352 793H276L389 950H512L352 793Z" />
<glyph unicode="&#xdb;" horiz-adv-x="712" d="M355 -10Q225 -10 153 69T80 292V720H162V288Q162 180 212 122T355 64Q450 64 500 121T550 288V720H632V291Q632 149 559 70T355 -10ZM171 793L313 950H399L541 793H466L316 930H396L246 793H171Z" />
<glyph unicode="&#xdc;" horiz-adv-x="712" d="M355 -10Q225 -10 153 69T80 292V720H162V288Q162 180 212 122T355 64Q450 64 500 121T550 288V720H632V291Q632 149 559 70T355 -10ZM424 836V930H516V836H424ZM195 836V930H287V836H195Z" />
<glyph unicode="&#xdd;" horiz-adv-x="676" d="M297 0V326L24 720H124L361 374H323L560 720H652L379 326V0H297ZM334 793H258L371 950H494L334 793Z" />
<glyph unicode="&#xde;" horiz-adv-x="656" d="M146 160V232H369Q449 232 490 268T532 370Q532 436 491 472T369 508H146V580H372Q449 580 503 555T585 482T614 370Q614 306 586 259T503 186T372 160H146ZM86 0V720H168V0H86Z" />
<glyph unicode="&#xdf;" horiz-adv-x="612" d="M317 -9Q294 -9 276 -7T247 0V68Q262 64 278 62T313 59Q412 59 452 96T492 196Q492 261 448 301T329 342H267V412H327Q361 412 390 427T436 470T454 535Q454 594 416 630T312 666Q247 666 204 625T160 498V0H80V502Q80
609 143 669T310 730Q378 730 428 707T507 642T536 542Q536 491 512 452T446 391T354 369L347 390Q416 390 467 365T546 295T574 193Q574 133 544 88T456 17T317 -9Z" />
<glyph unicode="&#xe0;" horiz-adv-x="533" d="M393 0Q389 17 388 39T386 95H381V339Q381 397 355 424T269 452Q211 452 177 429T138 362H61Q66 436 123 478T272 520Q367 520 413 475T459 340V95Q459 73 462 50T470 0H393ZM218 -10Q139 -10 93 28T46 134Q46 201
92 238T226 290L404 320V254L238 228Q182 219 153 198T124 137Q124 98 150 78T229 58Q296 58 338 88T381 168L394 97Q378 46 332 18T218 -10ZM271 583L111 740H234L347 583H271Z" />
<glyph unicode="&#xe1;" horiz-adv-x="533" d="M393 0Q389 17 388 39T386 95H381V339Q381 397 355 424T269 452Q211 452 177 429T138 362H61Q66 436 123 478T272 520Q367 520 413 475T459 340V95Q459 73 462 50T470 0H393ZM218 -10Q139 -10 93 28T46 134Q46 201
92 238T226 290L404 320V254L238 228Q182 219 153 198T124 137Q124 98 150 78T229 58Q296 58 338 88T381 168L394 97Q378 46 332 18T218 -10ZM263 583H187L300 740H423L263 583Z" />
<glyph unicode="&#xe2;" horiz-adv-x="533" d="M393 0Q389 17 388 39T386 95H381V339Q381 397 355 424T269 452Q211 452 177 429T138 362H61Q66 436 123 478T272 520Q367 520 413 475T459 340V95Q459 73 462 50T470 0H393ZM218 -10Q139 -10 93 28T46 134Q46 201
92 238T226 290L404 320V254L238 228Q182 219 153 198T124 137Q124 98 150 78T229 58Q296 58 338 88T381 168L394 97Q378 46 332 18T218 -10ZM82 583L224 740H310L452 583H377L227 720H307L157 583H82Z" />
<glyph unicode="&#xe3;" horiz-adv-x="533" d="M393 0Q389 17 388 39T386 95H381V339Q381 397 355 424T269 452Q211 452 177 429T138 362H61Q66 436 123 478T272 520Q367 520 413 475T459 340V95Q459 73 462 50T470 0H393ZM218 -10Q139 -10 93 28T46 134Q46 201
92 238T226 290L404 320V254L238 228Q182 219 153 198T124 137Q124 98 150 78T229 58Q296 58 338 88T381 168L394 97Q378 46 332 18T218 -10ZM344 593Q314 593 293 603T254 627T220 651T185 662Q165 662 151 648T137 603H79Q79 641 93 667T134 708T193 722Q224
722 245 712T282 688T313 664T348 653Q369 653 383 667T397 712H455Q455 676 441 649T401 608T344 593Z" />
<glyph unicode="&#xe4;" horiz-adv-x="533" d="M393 0Q389 17 388 39T386 95H381V339Q381 397 355 424T269 452Q211 452 177 429T138 362H61Q66 436 123 478T272 520Q367 520 413 475T459 340V95Q459 73 462 50T470 0H393ZM218 -10Q139 -10 93 28T46 134Q46 201
92 238T226 290L404 320V254L238 228Q182 219 153 198T124 137Q124 98 150 78T229 58Q296 58 338 88T381 168L394 97Q378 46 332 18T218 -10ZM335 626V720H427V626H335ZM106 626V720H198V626H106Z" />
<glyph unicode="&#xe5;" horiz-adv-x="533" d="M393 0Q389 17 388 39T386 95H381V339Q381 397 355 424T269 452Q211 452 177 429T138 362H61Q66 436 123 478T272 520Q367 520 413 475T459 340V95Q459 73 462 50T470 0H393ZM218 -10Q139 -10 93 28T46 134Q46 201
92 238T226 290L404 320V254L238 228Q182 219 153 198T124 137Q124 98 150 78T229 58Q296 58 338 88T381 168L394 97Q378 46 332 18T218 -10ZM267 561Q221 561 190 592T159 669Q159 713 190 744T267 776Q313 776 343 745T374 669Q374 624 344 593T267 561ZM267
611Q291 611 306 628T322 669Q322 692 307 709T267 726Q242 726 227 709T211 669Q211 645 226 628T267 611Z" />
<glyph unicode="&#xe6;" horiz-adv-x="865" d="M371 135V339Q371 397 346 424T264 452Q209 452 176 429T139 362H61Q66 436 121 478T267 520Q360 520 405 475T451 340V135H371ZM214 -10Q136 -10 91 28T46 129Q46 193 89 231T222 285L394 315V249L235 223Q178 214
152 192T126 132Q126 97 151 78T226 58Q269 58 301 72T352 111T371 168L434 137Q403 56 345 23T214 -10ZM604 -10Q534 -10 484 24T406 119T379 257Q379 335 407 394T487 487T606 520Q674 520 723 489T798 402T825 270Q825 260 825 251T822 231H429V298H773L747
261Q747 353 712 402T606 452Q562 452 527 428T472 361T451 258Q451 167 493 113T608 58Q653 58 685 79T734 141H810Q785 71 732 31T604 -10Z" />
<glyph unicode="&#xe7;" horiz-adv-x="533" d="M282 -10Q212 -10 158 24T72 119T40 257Q40 334 71 393T157 486T281 520Q338 520 383 498T458 436T496 341H422Q412 390 376 421T283 452Q234 452 198 428T142 360T122 257Q122 198 142 153T198 83T284 58Q339 58
376 88T423 168H497Q488 115 458 75T382 12T282 -10ZM269 -215Q217 -215 185 -191T151 -126H207Q209 -146 228 -154T271 -163Q294 -163 310 -155T327 -130Q327 -113 308 -101T232 -87L257 12H315L298 -44Q347 -54 366 -77T386 -130Q386 -171 354 -193T269 -215Z"
/>
<glyph unicode="&#xe8;" d="M289 -10Q216 -10 160 24T72 119T40 257Q40 335 71 394T160 487T291 520Q362 520 414 489T495 402T524 270Q524 260 524 251T521 231H100V298H472L446 261Q446 353 406 402T291 452Q215 452 169 400T122 258Q122 167 168 113T293 58Q342
58 379 79T433 141H509Q484 71 426 31T289 -10ZM297 583L137 740H260L373 583H297Z" />
<glyph unicode="&#xe9;" d="M289 -10Q216 -10 160 24T72 119T40 257Q40 335 71 394T160 487T291 520Q362 520 414 489T495 402T524 270Q524 260 524 251T521 231H100V298H472L446 261Q446 353 406 402T291 452Q215 452 169 400T122 258Q122 167 168 113T293 58Q342
58 379 79T433 141H509Q484 71 426 31T289 -10ZM289 583H213L326 740H449L289 583Z" />
<glyph unicode="&#xea;" d="M289 -10Q216 -10 160 24T72 119T40 257Q40 335 71 394T160 487T291 520Q362 520 414 489T495 402T524 270Q524 260 524 251T521 231H100V298H472L446 261Q446 353 406 402T291 452Q215 452 169 400T122 258Q122 167 168 113T293 58Q342
58 379 79T433 141H509Q484 71 426 31T289 -10ZM108 583L250 740H336L478 583H403L253 720H333L183 583H108Z" />
<glyph unicode="&#xeb;" d="M289 -10Q216 -10 160 24T72 119T40 257Q40 335 71 394T160 487T291 520Q362 520 414 489T495 402T524 270Q524 260 524 251T521 231H100V298H472L446 261Q446 353 406 402T291 452Q215 452 169 400T122 258Q122 167 168 113T293 58Q342
58 379 79T433 141H509Q484 71 426 31T289 -10ZM361 626V720H453V626H361ZM132 626V720H224V626H132Z" />
<glyph unicode="&#xec;" horiz-adv-x="240" d="M80 0V510H160V0H80ZM380 583L220 740H343L456 583H380Z" />
<glyph unicode="&#xed;" horiz-adv-x="240" d="M80 0V510H160V0H80ZM372 583H296L409 740H532L372 583Z" />
<glyph unicode="&#xee;" horiz-adv-x="240" d="M80 0V510H160V0H80ZM191 583L333 740H419L561 583H486L336 720H416L266 583H191Z" />
<glyph unicode="&#xef;" horiz-adv-x="240" d="M80 0V510H160V0H80ZM444 626V720H536V626H444ZM215 626V720H307V626H215Z" />
<glyph unicode="&#xf0;" horiz-adv-x="592" d="M284 -10Q216 -10 161 19T73 105T40 240Q40 320 72 376T159 463T278 494Q332 494 377 475T452 420T491 338L470 289V354Q470 455 428 524T305 629T109 665L119 730Q218 730 297 705T433 631T520 512T550 350Q550
175 478 83T284 -10ZM280 62Q331 62 370 84T431 148T454 250Q454 308 430 346T366 404T282 424Q212 424 167 378T122 241Q122 182 143 142T201 82T280 62ZM192 527L161 577L445 755L476 705L192 527Z" />
<glyph unicode="&#xf1;" horiz-adv-x="599" d="M80 0V510H155V390H160V0H80ZM445 0V334Q445 392 416 421T330 450Q280 450 242 428T182 367T160 276L147 397Q173 454 226 487T348 520Q428 520 476 475T525 355V0H445ZM407 593Q377 593 356 603T317 627T283 651T248
662Q228 662 214 648T200 603H142Q142 641 156 667T197 708T256 722Q287 722 308 712T345 688T376 664T411 653Q432 653 446 667T460 712H518Q518 676 504 649T464 608T407 593Z" />
<glyph unicode="&#xf2;" horiz-adv-x="584" d="M292 -10Q217 -10 160 25T72 120T40 257Q40 334 72 393T160 486T292 520Q368 520 424 486T512 393T544 257Q544 181 513 121T425 25T292 -10ZM292 58Q344 58 382 83T441 154T462 258Q462 346 416 399T292 452Q216
452 169 399T122 258Q122 199 143 154T202 84T292 58ZM296 583L136 740H259L372 583H296Z" />
<glyph unicode="&#xf3;" horiz-adv-x="584" d="M292 -10Q217 -10 160 25T72 120T40 257Q40 334 72 393T160 486T292 520Q368 520 424 486T512 393T544 257Q544 181 513 121T425 25T292 -10ZM292 58Q344 58 382 83T441 154T462 258Q462 346 416 399T292 452Q216
452 169 399T122 258Q122 199 143 154T202 84T292 58ZM288 583H212L325 740H448L288 583Z" />
<glyph unicode="&#xf4;" horiz-adv-x="584" d="M292 -10Q217 -10 160 25T72 120T40 257Q40 334 72 393T160 486T292 520Q368 520 424 486T512 393T544 257Q544 181 513 121T425 25T292 -10ZM292 58Q344 58 382 83T441 154T462 258Q462 346 416 399T292 452Q216
452 169 399T122 258Q122 199 143 154T202 84T292 58ZM107 583L249 740H335L477 583H402L252 720H332L182 583H107Z" />
<glyph unicode="&#xf5;" horiz-adv-x="584" d="M292 -10Q217 -10 160 25T72 120T40 257Q40 334 72 393T160 486T292 520Q368 520 424 486T512 393T544 257Q544 181 513 121T425 25T292 -10ZM292 58Q344 58 382 83T441 154T462 258Q462 346 416 399T292 452Q216
452 169 399T122 258Q122 199 143 154T202 84T292 58ZM369 593Q339 593 318 603T279 627T245 651T210 662Q190 662 176 648T162 603H104Q104 641 118 667T159 708T218 722Q249 722 270 712T307 688T338 664T373 653Q394 653 408 667T422 712H480Q480 676 466 649T426
608T369 593Z" />
<glyph unicode="&#xf6;" horiz-adv-x="584" d="M292 -10Q217 -10 160 25T72 120T40 257Q40 334 72 393T160 486T292 520Q368 520 424 486T512 393T544 257Q544 181 513 121T425 25T292 -10ZM292 58Q344 58 382 83T441 154T462 258Q462 346 416 399T292 452Q216
452 169 399T122 258Q122 199 143 154T202 84T292 58ZM360 626V720H452V626H360ZM131 626V720H223V626H131Z" />
<glyph unicode="&#xf7;" horiz-adv-x="531" d="M60 337V405H471V337H60ZM266 480Q241 480 225 496T208 538Q208 563 224 579T266 595Q289 595 306 579T323 538Q323 512 306 496T266 480ZM266 147Q241 147 225 163T208 205Q208 230 224 246T266 262Q289 262 306
246T323 205Q323 179 306 163T266 147Z" />
<glyph unicode="&#xf8;" horiz-adv-x="584" d="M292 -10Q217 -10 160 25T72 120T40 257Q40 334 72 393T160 486T292 520Q368 520 424 486T512 393T544 257Q544 181 513 121T425 25T292 -10ZM292 58Q344 58 382 83T441 154T462 258Q462 346 416 399T292 452Q216
452 169 399T122 258Q122 199 143 154T202 84T292 58ZM76 -2L35 39L508 512L549 471L76 -2Z" />
<glyph unicode="&#xf9;" horiz-adv-x="589" d="M246 -10Q196 -10 157 10T96 68T74 155V510H154V176Q154 118 182 89T264 60Q312 60 349 82T407 143T429 234L442 113Q417 56 364 23T246 -10ZM434 0V120H429V510H509V0H434ZM299 583L139 740H262L375 583H299Z" />
<glyph unicode="&#xfa;" horiz-adv-x="589" d="M246 -10Q196 -10 157 10T96 68T74 155V510H154V176Q154 118 182 89T264 60Q312 60 349 82T407 143T429 234L442 113Q417 56 364 23T246 -10ZM434 0V120H429V510H509V0H434ZM291 583H215L328 740H451L291 583Z" />
<glyph unicode="&#xfb;" horiz-adv-x="589" d="M246 -10Q196 -10 157 10T96 68T74 155V510H154V176Q154 118 182 89T264 60Q312 60 349 82T407 143T429 234L442 113Q417 56 364 23T246 -10ZM434 0V120H429V510H509V0H434ZM110 583L252 740H338L480 583H405L255
720H335L185 583H110Z" />
<glyph unicode="&#xfc;" horiz-adv-x="589" d="M246 -10Q196 -10 157 10T96 68T74 155V510H154V176Q154 118 182 89T264 60Q312 60 349 82T407 143T429 234L442 113Q417 56 364 23T246 -10ZM434 0V120H429V510H509V0H434ZM363 626V720H455V626H363ZM134 626V720H226V626H134Z"
/>
<glyph unicode="&#xfd;" horiz-adv-x="523" d="M124 -205L238 60L256 88L423 510H505L209 -205H124ZM247 -5L18 510H106L303 49L247 -5ZM258 583H182L295 740H418L258 583Z" />
<glyph unicode="&#xfe;" horiz-adv-x="606" d="M332 -9Q260 -9 211 26T144 125L160 127V-205H80V720H160V391L144 394Q163 453 216 486T339 520Q407 520 457 487T536 395T564 257Q564 177 535 117T454 24T332 -9ZM320 61Q396 61 439 113T482 257Q482 347 439 398T320
450Q244 450 200 398T156 254Q156 165 200 113T320 61Z" />
<glyph unicode="&#xff;" horiz-adv-x="523" d="M124 -205L238 60L256 88L423 510H505L209 -205H124ZM247 -5L18 510H106L303 49L247 -5ZM330 626V720H422V626H330ZM101 626V720H193V626H101Z" />
<glyph unicode="&#x2013;" horiz-adv-x="586" d="M80 238V306H506V238H80Z" />
<glyph unicode="&#x2014;" horiz-adv-x="886" d="M80 238V306H806V238H80Z" />
<glyph unicode="&#x2018;" horiz-adv-x="255" d="M76 507V585Q76 649 101 690T184 740V699Q150 695 136 673T122 603L92 607H183V507H76Z" />
<glyph unicode="&#x2019;" horiz-adv-x="255" d="M71 511V552Q105 556 119 578T133 648L163 644H72V744H179V666Q179 602 154 561T71 511Z" />
<glyph unicode="&#x201a;" horiz-adv-x="248" d="M327 -144V-103Q356 -92 369 -69T382 3L413 0H327V102H428V21Q428 -43 404 -85T327 -144Z" />
<glyph unicode="&#x201c;" horiz-adv-x="409" d="M230 507V585Q230 649 255 690T338 740V699Q304 695 290 673T276 603L246 607H337V507H230ZM76 507V585Q76 649 101 690T184 740V699Q150 695 136 673T122 603L92 607H183V507H76Z" />
<glyph unicode="&#x201d;" horiz-adv-x="409" d="M225 511V552Q259 556 273 578T287 648L317 644H226V744H333V666Q333 602 308 561T225 511ZM71 511V552Q105 556 119 578T133 648L163 644H72V744H179V666Q179 602 154 561T71 511Z" />
<glyph unicode="&#x201e;" horiz-adv-x="398" d="M221 -144V-103Q250 -92 263 -69T276 3L307 0H221V102H322V21Q322 -43 298 -85T221 -144ZM327 -144V-103Q356 -92 369 -69T382 3L413 0H327V102H428V21Q428 -43 404 -85T327 -144Z" />
<glyph unicode="&#x2022;" horiz-adv-x="306" d="M76 299V454H231V299H76Z" />
<glyph unicode="&#x2039;" horiz-adv-x="334" d="M187 68L55 251L187 434H269L141 251L269 68H187Z" />
<glyph unicode="&#x203a;" horiz-adv-x="334" d="M147 68H65L193 251L65 434H147L279 251L147 68Z" />
</font>
</defs>
</svg>
