<?xml version="1.0" standalone="no"?>
<!DOCTYPE svg PUBLIC "-//W3C//DTD SVG 1.1//EN" "http://www.w3.org/Graphics/SVG/1.1/DTD/svg11.dtd">
<svg xmlns="http://www.w3.org/2000/svg">
<defs >
<font id="InstrumentSans" horiz-adv-x="576" ><font-face
    font-family="Instrument Sans SemiBold"
    units-per-em="1000"
    panose-1="0 0 0 0 0 0 0 0 0 0"
    ascent="970"
    descent="-250"
    alphabetic="0" />
<glyph unicode=" " horiz-adv-x="193" />
<glyph unicode="!" horiz-adv-x="295" d="M96 253L78 740H217L198 253H96ZM76 0V144H220V0H76Z" />
<glyph unicode="&quot;" horiz-adv-x="449" d="M107 445L73 575Q64 608 60 631T55 675Q55 692 63 709T87 738T128 750Q153 750 169 739T193 710T201 675Q201 654 197 631T183 575L149 445H107ZM300 445L266 575Q257 608 253 631T248 675Q248 692 256 709T280 738T321
750Q346 750 362 739T386 710T394 675Q394 654 390 631T376 575L342 445H300Z" />
<glyph unicode="#" horiz-adv-x="727" d="M134 0L234 720H344L244 0H134ZM383 0L483 720H593L493 0H383ZM60 534H691V430H60V534ZM35 300H666V196H35V300Z" />
<glyph unicode="$" horiz-adv-x="637" d="M276 696V830H379V696H276ZM379 20V-109H276V20H379ZM341 -9Q205 -9 125 53T30 230H155Q164 164 214 128T345 91Q412 91 447 115T483 184Q483 223 461 247T387 286L257 325Q158 355 112 404T65 527Q65 589 97 635T187
706T324 731Q444 731 515 673T597 514H472Q461 574 422 602T317 631Q259 631 225 608T191 545Q191 512 211 489T288 449L420 409Q519 380 564 330T609 203Q609 101 539 46T341 -9Z" />
<glyph unicode="%" horiz-adv-x="786" d="M78 0L608 720H713L183 0H78ZM587 -10Q545 -10 508 10T448 71T425 175Q425 238 447 278T507 339T587 359Q632 359 669 339T729 279T751 175Q751 112 728 71T668 10T587 -10ZM587 66Q621 66 644 94T667 176Q667 228 645
255T587 283Q552 283 531 256T509 176Q509 122 530 94T587 66ZM197 361Q154 361 117 381T58 442T35 546Q35 609 57 649T117 710T197 730Q242 730 279 710T338 650T360 546Q360 483 337 442T277 381T197 361ZM197 437Q231 437 254 465T277 547Q277 599 255 626T197
654Q162 654 141 627T119 547Q119 493 140 465T197 437Z" />
<glyph unicode="&amp;" horiz-adv-x="768" d="M592 0L215 396Q183 431 164 459T137 512T129 565Q129 611 154 648T224 708T329 730Q386 730 432 709T504 650T531 559Q531 498 485 448T349 367L288 440Q355 461 386 492T418 562Q418 596 395 618T331 640Q292 640
271 618T249 565Q249 548 256 530T285 483T352 409L755 0H592ZM306 -10Q223 -10 161 17T63 91T28 202Q28 286 85 343T250 432L311 357Q253 340 219 319T170 271T155 214Q155 158 197 126T317 94Q369 94 415 111T497 163T553 254T574 388H695Q695 317 676 256T623
145T540 62T432 9T306 -10Z" />
<glyph unicode="&apos;" horiz-adv-x="256" d="M107 445L73 575Q64 608 60 631T55 675Q55 692 63 709T87 738T128 750Q153 750 169 739T193 710T201 675Q201 654 197 631T183 575L149 445H107Z" />
<glyph unicode="(" horiz-adv-x="439" d="M272 -110Q170 -17 122 94T73 320Q73 433 122 544T272 750H396Q295 656 245 549T194 320Q194 198 246 91T396 -110H272Z" />
<glyph unicode=")" horiz-adv-x="439" d="M167 754Q269 661 317 550T366 324Q366 211 317 100T167 -106H43Q144 -12 194 95T245 324Q245 446 193 553T43 754H167Z" />
<glyph unicode="*" horiz-adv-x="430" d="M161 417L186 529L98 451L43 544L157 579L43 613L98 706L186 628L161 740H270L244 628L333 706L387 613L274 579L387 544L333 451L244 529L270 417H161Z" />
<glyph unicode="+" horiz-adv-x="544" d="M224 140V603H322V140H224ZM53 324V418H491V324H53Z" />
<glyph unicode="," horiz-adv-x="275" d="M67 -160V-98Q108 -85 121 -59T135 12L186 0H66V144H209V39Q209 -35 177 -87T67 -160Z" />
<glyph unicode="-" horiz-adv-x="493" d="M67 219V325H426V219H67Z" />
<glyph unicode="." horiz-adv-x="275" d="M65 0V144H210V0H65Z" />
<glyph unicode="/" horiz-adv-x="444" d="M37 -73L298 763H408L147 -73H37Z" />
<glyph unicode="0" horiz-adv-x="677" d="M338 -10Q250 -10 182 37T76 169T37 363Q37 472 75 554T181 683T338 730Q427 730 495 684T601 555T640 363Q640 253 602 169T495 38T338 -10ZM338 99Q393 99 429 134T483 229T502 364Q502 439 484 497T430 588T338 621Q284
621 248 588T193 496T175 364Q175 288 193 228T248 134T338 99Z" />
<glyph unicode="1" horiz-adv-x="387" d="M198 0V605L217 593Q203 563 173 537T103 491T17 464V589Q57 595 98 615T172 662T219 720H325V0H198Z" />
<glyph unicode="2" horiz-adv-x="557" d="M30 0V103Q132 187 200 248T310 357T368 443T386 521Q386 571 358 599T280 627Q228 627 195 597T155 511H23Q34 612 104 671T286 730Q397 730 460 673T524 513Q524 462 507 415T449 316T341 203T172 63L141 103H537V0H30Z" />
<glyph unicode="3" horiz-adv-x="579" d="M297 -10Q223 -10 165 17T70 97T27 225H157Q166 159 201 126T294 93Q346 93 378 122T411 205Q411 259 380 292T281 325H208V426H278Q337 426 365 454T394 528Q394 573 369 600T291 627Q243 627 209 599T167 514H35Q43
581 76 629T166 703T295 730Q367 730 420 707T502 641T532 539Q532 488 509 450T450 391T373 369L370 390Q426 390 466 365T527 296T549 199Q549 136 517 89T427 16T297 -10Z" />
<glyph unicode="4" horiz-adv-x="615" d="M380 0V190L386 210V621L436 599L140 202L83 249H591V146H27V245L384 720H513V0H380Z" />
<glyph unicode="5" horiz-adv-x="581" d="M293 -10Q184 -10 115 47T30 204H162Q171 151 206 122T290 93Q343 93 376 128T410 236Q410 307 378 343T291 380Q256 380 228 365T186 323H68L103 720H506V617H156L220 635L200 388L160 395Q184 432 222 454T318 476Q387
476 438 446T519 363T549 234Q549 157 517 103T428 19T293 -10Z" />
<glyph unicode="6" horiz-adv-x="615" d="M323 -10Q186 -10 112 82T37 346Q37 466 72 552T174 684T331 730Q432 730 496 676T575 524H443Q437 574 407 600T330 627Q252 627 213 560T173 354V289L145 298Q155 346 184 381T257 435T354 454Q423 454 475 425T556
345T586 223Q586 153 553 101T461 19T323 -10ZM316 93Q373 93 410 127T447 223Q447 286 410 319T314 353Q256 353 217 321T177 227Q177 186 196 156T246 109T316 93Z" />
<glyph unicode="7" horiz-adv-x="561" d="M154 0Q169 171 237 332T420 640L422 617H24V720H540V627Q468 523 417 422T335 216T296 0H154Z" />
<glyph unicode="8" horiz-adv-x="598" d="M300 -10Q220 -10 160 17T67 91T33 201Q33 255 57 298T122 365T218 390L229 369Q175 369 135 389T74 447T53 534Q53 593 83 637T169 705T299 730Q374 730 429 706T514 637T545 535Q545 485 524 448T463 390T368 369L380
390Q434 390 475 366T541 298T565 201Q565 139 532 91T440 17T300 -10ZM299 93Q359 93 392 124T426 211Q426 266 392 297T299 328Q240 328 206 297T172 211Q172 155 206 124T299 93ZM299 423Q348 423 378 450T408 525Q408 573 378 600T298 627Q250 627 220 600T190
525Q190 478 220 451T299 423Z" />
<glyph unicode="9" horiz-adv-x="619" d="M291 -10Q218 -10 165 17T81 94T41 212H173Q179 151 210 122T295 93Q333 93 360 108T404 156T428 241T436 366V431L471 429Q461 382 432 347T359 293T261 273Q193 273 142 302T61 382T31 499Q31 569 64 620T156 701T293
730Q432 730 505 638T579 368Q579 249 546 165T448 35T291 -10ZM302 374Q362 374 396 407T430 495Q430 533 415 563T370 610T301 627Q242 627 208 592T174 500Q174 445 207 410T302 374Z" />
<glyph unicode=":" horiz-adv-x="275" d="M65 0V144H210V0H65ZM65 343V487H210V343H65Z" />
<glyph unicode=";" horiz-adv-x="275" d="M67 -160V-98Q108 -85 121 -59T135 12L186 0H66V144H209V39Q209 -35 177 -87T67 -160ZM65 343V487H210V343H65Z" />
<glyph unicode="&lt;" horiz-adv-x="544" d="M491 577V476L148 360V383L491 269V169L53 319V423L491 577Z" />
<glyph unicode="=" horiz-adv-x="544" d="M53 424V518H491V424H53ZM53 224V318H491V224H53Z" />
<glyph unicode="&gt;" horiz-adv-x="544" d="M53 165V266L396 382V359L53 473V573L491 423V319L53 165Z" />
<glyph unicode="?" horiz-adv-x="580" d="M238 253Q238 303 251 337T286 395T330 437T375 471T409 508T422 557Q422 600 392 623T307 647Q246 647 207 617T158 531H33Q42 598 78 647T174 723T309 750Q383 750 437 726T522 659T553 557Q553 514 539 484T504 432T457
392T411 355T375 312T361 253H238ZM228 0V144H372V0H228Z" />
<glyph unicode="@" horiz-adv-x="867" d="M431 -10Q311 -10 223 31T86 148T37 326Q37 412 67 485T154 614T294 699T482 730Q587 730 665 694T786 592T830 440Q830 383 812 331T761 239T687 175T598 151Q561 151 536 167T501 212T503 275V249Q480 204 441 178T356
152Q291 152 251 199T210 322Q210 373 226 418T270 498T336 552T417 572Q480 572 512 538T540 450L530 451L554 543H667L607 311Q597 271 602 252T629 232Q651 232 671 248T708 292T733 355T742 430Q742 501 710 549T620 623T480 649Q393 649 327 625T216 557T148
455T125 328Q125 249 161 192T265 103T425 71Q478 71 530 82T632 113L662 39Q615 16 556 3T431 -10ZM404 245Q426 245 445 255T478 285T501 329T509 383Q509 428 488 453T431 479Q409 479 390 469T357 439T334 396T326 341Q326 295 347 270T404 245Z" />
<glyph unicode="A" horiz-adv-x="733" d="M28 0L293 720H405L156 0H28ZM571 0L323 720H441L705 0H571ZM165 283H559V179H165V283Z" />
<glyph unicode="B" horiz-adv-x="645" d="M164 0V96H365Q420 96 450 126T480 210Q480 265 448 297T359 329H164V425H350Q404 425 433 451T462 526Q462 574 435 599T354 624H164V720H378Q475 720 533 672T592 540Q592 488 568 450T502 390T409 369L414 390Q469
390 514 366T585 297T612 195Q612 136 585 92T508 24T391 0H164ZM62 0V720H192V0H62Z" />
<glyph unicode="C" horiz-adv-x="747" d="M391 -10Q314 -10 250 17T137 95T63 213T37 362Q37 443 63 510T136 626T248 703T391 730Q477 730 546 696T659 601T714 456H586Q574 537 521 580T392 624Q325 624 275 592T197 502T169 363Q169 281 197 222T276 129T393
96Q467 96 520 139T587 263H716Q704 181 660 119T546 24T391 -10Z" />
<glyph unicode="D" horiz-adv-x="755" d="M141 0V104H327Q409 104 467 137T555 229T586 364Q586 439 556 496T468 584T327 616H143V720H327Q445 720 533 676T669 552T718 362Q718 253 669 172T533 45T328 0H141ZM62 0V720H192V0H62Z" />
<glyph unicode="E" horiz-adv-x="630" d="M62 0V720H192V0H62ZM124 0V103H580V0H124ZM124 320V421H545V320H124ZM124 617V720H569V617H124Z" />
<glyph unicode="F" horiz-adv-x="594" d="M62 0V720H192V0H62ZM124 289V392H529V289H124ZM124 617V720H553V617H124Z" />
<glyph unicode="G" horiz-adv-x="764" d="M407 -10Q293 -10 210 35T82 163T37 357Q37 468 82 551T207 682T393 730Q479 730 547 699T658 613T710 486H580Q570 550 520 587T395 624Q327 624 276 592T197 501T169 360Q169 276 197 217T280 126T414 95Q475 95 519
110T590 157L715 108Q658 50 583 20T407 -10ZM585 108V318L616 287H413V389H715V108H585Z" />
<glyph unicode="H" horiz-adv-x="725" d="M62 0V720H192V0H62ZM533 0V720H663V0H533ZM124 426H592V324H124V426Z" />
<glyph unicode="I" horiz-adv-x="254" d="M62 0V720H192V0H62Z" />
<glyph unicode="J" horiz-adv-x="427" d="M137 -10Q99 -10 64 -5T13 9V113Q33 105 61 100T118 94Q180 94 209 117T238 195V720H368V189Q368 89 309 40T137 -10Z" />
<glyph unicode="K" horiz-adv-x="712" d="M62 0V720H192V0H62ZM156 374L497 720H672L317 374H156ZM513 0L154 374H317L692 0H513Z" />
<glyph unicode="L" horiz-adv-x="589" d="M62 0V720H192V0H62ZM124 0V103H546V0H124Z" />
<glyph unicode="M" horiz-adv-x="898" d="M62 0V720H264L484 26H413L633 720H836V0H708V677H729L515 0H376L164 671H184V0H62Z" />
<glyph unicode="N" horiz-adv-x="725" d="M62 0V720H223L574 94L537 85V720H663V0H502L151 626L188 635V0H62Z" />
<glyph unicode="O" horiz-adv-x="794" d="M397 -10Q319 -10 253 17T139 94T64 212T37 363Q37 472 83 554T210 683T396 730Q502 730 583 684T711 554T757 362Q757 280 731 212T656 94T541 17T397 -10ZM396 96Q464 96 515 130T596 224T625 364Q625 442 597 500T517
591T396 624Q328 624 277 592T197 501T169 364Q169 284 197 224T277 130T396 96Z" />
<glyph unicode="P" horiz-adv-x="667" d="M62 0V720H385Q464 720 520 693T607 617T638 501Q638 435 607 385T520 308T385 280H163V382H379Q441 382 474 414T508 501Q508 555 475 586T379 617H192V0H62Z" />
<glyph unicode="Q" horiz-adv-x="806" d="M403 -10Q294 -10 212 37T83 169T37 363Q37 472 83 554T210 683T396 730Q502 730 583 684T711 554T757 362Q757 289 733 225T659 115T529 50L403 -10ZM396 91Q464 91 515 124T596 220T625 364Q625 442 597 500T517 591T396
624Q328 624 277 592T197 501T169 364Q169 281 197 220T277 125T396 91ZM403 -10L397 80L791 103V0Q728 0 681 -1T592 -5T505 -8T403 -10Z" />
<glyph unicode="R" horiz-adv-x="664" d="M59 0V720H363Q440 720 497 694T584 621T615 511Q615 449 585 402T497 329T363 303H161V402H359Q422 402 455 431T489 511Q489 562 456 589T359 617H189V0H59ZM471 0L150 368H296L651 0H471Z" />
<glyph unicode="S" horiz-adv-x="637" d="M341 -9Q205 -9 125 53T30 230H155Q164 164 214 128T345 91Q412 91 447 115T483 184Q483 223 461 247T387 286L257 325Q158 355 112 404T65 527Q65 589 97 635T187 706T324 731Q444 731 515 673T597 514H472Q461 574 422
602T317 631Q259 631 225 608T191 545Q191 512 211 489T288 449L420 409Q519 380 564 330T609 203Q609 101 539 46T341 -9Z" />
<glyph unicode="T" horiz-adv-x="664" d="M267 0V617H28V720H636V617H397V0H267Z" />
<glyph unicode="U" horiz-adv-x="704" d="M351 -10Q205 -10 130 73T55 311V720H185V292Q185 193 229 145T352 96Q431 96 475 144T519 291V720H649V310Q649 156 574 73T351 -10Z" />
<glyph unicode="V" horiz-adv-x="733" d="M293 0L28 720H164L381 92H359L576 720H705L441 0H293Z" />
<glyph unicode="W" horiz-adv-x="1087" d="M246 0L39 720H171L347 59H309L472 720H622L783 59H746L922 720H1048L841 0H693L529 646H560L394 0H246Z" />
<glyph unicode="X" horiz-adv-x="707" d="M528 0L317 322L44 720H196L394 416L680 0H528ZM336 415L542 720H680L384 308L336 415ZM370 304L164 0H26L321 411L370 304Z" />
<glyph unicode="Y" horiz-adv-x="700" d="M285 0V303L15 720H172L392 351H322L541 720H685L415 303V0H285Z" />
<glyph unicode="Z" horiz-adv-x="631" d="M47 0V90L453 669L488 617H59V720H583V630L181 56L147 103H589V0H47Z" />
<glyph unicode="[" horiz-adv-x="439" d="M83 -108V750H386V650H203V-8H386V-108H83Z" />
<glyph unicode="\" horiz-adv-x="444" d="M37 763H147L408 -73H298L37 763Z" />
<glyph unicode="]" horiz-adv-x="439" d="M356 750V-108H53V-8H237V650H53V750H356Z" />
<glyph unicode="^" horiz-adv-x="544" d="M162 491H66L219 740H326L479 491H383L236 699H309L162 491Z" />
<glyph unicode="_" horiz-adv-x="466" d="M0 -153V-57H466V-153H0Z" />
<glyph unicode="`" horiz-adv-x="354" d="M223 583L60 740H233L337 583H223Z" />
<glyph unicode="a" horiz-adv-x="558" d="M385 0Q380 20 378 44T375 102H371V344Q371 384 349 404T280 425Q235 425 209 409T176 361H55Q63 432 123 476T284 520Q389 520 443 473T497 333V102Q497 78 500 53T511 0H385ZM208 -10Q131 -10 86 28T40 132Q40 202 91
243T235 298L394 322V242L256 221Q211 214 189 196T166 146Q166 117 187 102T245 86Q299 86 335 113T371 179L385 102Q365 47 320 19T208 -10Z" />
<glyph unicode="b" horiz-adv-x="621" d="M358 -10Q285 -10 239 24T181 120L190 121V0H67V720H193V395L184 397Q197 454 245 487T366 520Q434 520 484 488T563 396T591 257Q591 176 562 116T481 23T358 -10ZM326 94Q387 94 423 136T459 256Q459 333 423 375T325
417Q265 417 228 375T191 255Q191 178 228 136T326 94Z" />
<glyph unicode="c" horiz-adv-x="552" d="M288 -10Q211 -10 153 24T61 118T27 256Q27 333 60 392T152 486T288 520Q351 520 402 497T486 431T528 332H407Q396 373 365 396T290 419Q249 419 220 399T174 342T158 256Q158 206 174 169T220 112T290 91Q334 91 365
114T407 178H528Q519 122 486 80T402 14T288 -10Z" />
<glyph unicode="d" horiz-adv-x="621" d="M431 0V115L441 113Q428 57 378 24T259 -10Q189 -10 138 22T58 114T30 253Q30 334 59 394T140 487T263 520Q335 520 382 486T440 390L427 389V720H554V0H431ZM296 93Q357 93 393 135T430 255Q430 332 393 374T295 416Q235
416 198 374T161 254Q161 177 198 135T296 93Z" />
<glyph unicode="e" horiz-adv-x="571" d="M296 -10Q215 -10 155 24T61 118T27 256Q27 334 60 393T154 486T294 520Q370 520 426 489T513 400T544 267Q544 253 543 241T540 217H105V305H443L417 281Q417 353 384 389T292 425Q228 425 191 381T153 254Q153 172 190
129T297 85Q337 85 367 100T411 146H530Q505 74 446 32T296 -10Z" />
<glyph unicode="f" horiz-adv-x="370" d="M107 0V557Q107 641 153 685T293 730Q314 730 328 728T355 722V624Q348 627 337 628T312 630Q272 630 253 611T233 554V0H107ZM15 411V510H344V411H15Z" />
<glyph unicode="g" horiz-adv-x="621" d="M291 -215Q190 -215 126 -171T49 -52H169Q178 -78 208 -92T288 -107Q359 -107 393 -76T427 20V130L436 128Q424 72 375 39T255 5Q187 5 137 37T58 126T30 261Q30 339 59 397T140 487T263 520Q335 520 381 486T439 390L431
389V510H554V21Q554 -88 484 -151T291 -215ZM296 105Q357 105 393 146T430 263Q430 338 393 379T295 420Q235 420 198 379T161 262Q161 187 198 146T296 105Z" />
<glyph unicode="h" horiz-adv-x="612" d="M67 0V720H193V0H67ZM425 0V322Q425 369 401 393T331 417Q291 417 260 399T211 349T193 275L180 397Q206 453 256 486T376 520Q459 520 505 473T552 348V0H425Z" />
<glyph unicode="i" horiz-adv-x="260" d="M67 0V510H193V0H67ZM61 594V733H198V594H61Z" />
<glyph unicode="j" horiz-adv-x="260" d="M27 -215Q9 -215 -5 -213T-32 -207V-109Q-24 -112 -14 -113T8 -115Q38 -115 52 -101T67 -59V510H193V-62Q193 -134 153 -174T27 -215ZM61 594V733H198V594H61Z" />
<glyph unicode="k" horiz-adv-x="558" d="M67 0V727H193V0H67ZM396 0L164 265L389 510H541L281 242L288 289L551 0H396Z" />
<glyph unicode="l" horiz-adv-x="260" d="M67 0V720H193V0H67Z" />
<glyph unicode="m" horiz-adv-x="941" d="M67 0V510H190V390H193V0H67ZM410 0V329Q410 374 388 395T324 417Q288 417 258 400T211 352T193 280L180 397Q206 453 255 486T369 520Q447 520 492 476T537 361V0H410ZM753 0V329Q753 374 731 395T668 417Q631 417 601
400T554 352T537 280L515 397Q540 453 591 486T709 520Q789 520 834 475T880 354V0H753Z" />
<glyph unicode="n" horiz-adv-x="612" d="M67 0V510H190V390H193V0H67ZM425 0V322Q425 369 401 393T331 417Q291 417 260 399T211 349T193 275L180 397Q206 453 256 486T376 520Q459 520 505 473T552 348V0H425Z" />
<glyph unicode="o" horiz-adv-x="597" d="M299 -10Q218 -10 157 24T61 118T27 257Q27 335 61 394T156 486T299 520Q381 520 442 487T537 394T571 257Q571 179 537 119T441 24T299 -10ZM299 91Q339 91 371 111T421 169T439 258Q439 333 400 376T299 419Q238 419
198 376T158 258Q158 207 176 170T226 112T299 91Z" />
<glyph unicode="p" horiz-adv-x="621" d="M358 -10Q285 -10 240 24T183 120L193 121V-205H67V510H190V395L180 397Q194 454 244 487T366 520Q434 520 484 488T563 396T591 257Q591 176 562 116T481 23T358 -10ZM326 94Q387 94 423 136T459 256Q459 333 423 375T325
417Q265 417 228 375T191 255Q191 178 228 136T326 94Z" />
<glyph unicode="q" horiz-adv-x="621" d="M427 -205V115L441 113Q428 57 378 24T259 -10Q189 -10 138 22T58 114T30 253Q30 334 59 394T140 487T263 520Q335 520 382 486T440 390L431 389V510H554V-205H427ZM296 93Q358 93 394 135T430 255Q430 332 394 374T295
416Q233 416 197 374T161 254Q161 177 197 135T296 93Z" />
<glyph unicode="r" horiz-adv-x="390" d="M67 0V510H190V387H193V0H67ZM193 266L180 387Q198 452 241 486T344 520Q365 520 374 516V397Q369 399 360 399T338 400Q265 400 229 368T193 266Z" />
<glyph unicode="s" horiz-adv-x="494" d="M262 -10Q156 -10 93 34T24 158H139Q144 119 176 99T262 79Q311 79 335 94T360 139Q360 160 346 173T293 196L211 215Q127 233 87 271T46 368Q46 439 100 479T251 520Q346 520 403 480T467 368H352Q347 399 321 415T248
431Q205 431 183 418T161 378Q161 358 178 345T235 321L323 301Q398 284 436 242T475 143Q475 70 419 30T262 -10Z" />
<glyph unicode="t" horiz-adv-x="406" d="M296 -10Q202 -10 158 34T113 168V626L240 673V165Q240 128 260 110T323 92Q340 92 353 94T379 101V3Q367 -3 345 -6T296 -10ZM15 411V510H379V411H15Z" />
<glyph unicode="u" horiz-adv-x="604" d="M232 -10Q179 -10 141 12T82 74T61 162V510H187V188Q187 141 210 117T277 93Q316 93 345 111T392 161T410 235L423 113Q398 57 349 24T232 -10ZM414 0V120H410V510H537V0H414Z" />
<glyph unicode="v" horiz-adv-x="536" d="M209 0L5 510H141L304 41H237L400 510H532L327 0H209Z" />
<glyph unicode="w" horiz-adv-x="800" d="M172 0L16 510H148L240 127H231L344 510H459L574 127H564L655 510H784L628 0H510L395 379H405L290 0H172Z" />
<glyph unicode="x" horiz-adv-x="587" d="M417 0L260 228L48 510H191L333 303L560 0H417ZM270 307L413 510H553L331 219L270 307ZM320 213L166 0H27L260 302L320 213Z" />
<glyph unicode="y" horiz-adv-x="536" d="M99 -205L231 91L254 129L398 510H532L227 -205H99ZM212 5L5 510H142L315 52L212 5Z" />
<glyph unicode="z" horiz-adv-x="513" d="M47 0V89L340 459L370 411H56V510H465V421L177 56L148 99H471V0H47Z" />
<glyph unicode="{" horiz-adv-x="439" d="M292 -108Q222 -108 181 -84T127 -19T124 73L145 172Q156 223 138 247T72 271H33V371H72Q119 371 137 395T145 470L124 569Q113 621 126 661T181 726T292 750H386V650H299Q263 650 247 629T240 569L263 473Q278 414 255
375T184 321Q232 306 255 267T263 169L240 73Q231 35 247 14T299 -8H386V-108H292Z" />
<glyph unicode="|" horiz-adv-x="234" d="M62 -130V790H172V-130H62Z" />
<glyph unicode="}" horiz-adv-x="439" d="M147 750Q218 750 258 726T313 662T315 569L294 470Q283 420 301 396T368 371H406V271H368Q320 271 302 247T294 172L315 73Q327 22 313 -19T259 -84T147 -108H53V-8H141Q176 -8 192 13T199 73L176 169Q161 228 184 267T255
321Q208 336 185 375T176 473L199 569Q208 607 192 628T141 650H53V750H147Z" />
<glyph unicode="~" horiz-adv-x="544" d="M390 277Q432 277 464 293T518 343T543 428H459Q453 402 435 389T389 376Q363 376 338 385T286 407T226 429T154 438Q113 438 81 422T28 372T2 287H86Q93 313 110 326T156 339Q183 339 208 330T259 308T318 286T390 277Z" />
<glyph unicode="&#xa0;" horiz-adv-x="193" />
<glyph unicode="&#xa1;" horiz-adv-x="295" d="M78 -205L96 257H198L217 -205H78ZM220 510V366H76V510H220Z" />
<glyph unicode="&#xa2;" horiz-adv-x="552" d="M238 482V616H341V482H238ZM341 20V-109H238V20H341ZM288 -10Q211 -10 153 24T61 118T27 256Q27 333 60 392T152 486T288 520Q351 520 402 497T486 431T528 332H407Q396 373 365 396T290 419Q249 419 220 399T174
342T158 256Q158 206 174 169T220 112T290 91Q334 91 365 114T407 178H528Q519 122 486 80T402 14T288 -10Z" />
<glyph unicode="&#xa3;" horiz-adv-x="600" d="M43 0V104Q88 162 105 203T122 278Q122 311 111 337T84 391T58 448T46 519Q46 581 75 628T161 703T297 730Q376 730 433 703T525 627T565 514H441Q433 571 399 599T303 627Q240 627 208 598T176 519Q176 489 187
462T211 409T236 353T247 287Q247 246 226 194T146 72L134 109H540V0H43ZM14 288V396H464V288H14Z" />
<glyph unicode="&#xa5;" horiz-adv-x="640" d="M255 0V303L15 720H172L372 331H282L481 720H625L385 303V0H255ZM45 245V333H595V245H45ZM278 389H45V477H232L278 389ZM432 477H595V389H384L432 477Z" />
<glyph unicode="&#xa7;" horiz-adv-x="519" d="M277 178L278 260Q329 260 352 276T376 324Q376 352 358 368T303 394L221 412Q141 430 102 470T62 572Q62 645 116 687T267 730Q362 730 419 689T483 574H368Q363 606 337 622T264 639Q221 639 199 624T177 583Q177
559 194 545T251 520L339 500Q414 483 452 440T491 334Q491 260 435 219T277 178ZM254 -58Q159 -58 102 -17T38 97H153Q158 66 184 50T257 33Q300 33 322 48T344 89Q344 113 328 127T270 152L182 172Q107 190 69 233T30 338Q30 412 86 452T243 493V412Q192 412
169 396T145 348Q145 319 163 304T219 279L300 259Q380 242 419 202T459 100Q459 27 405 -15T254 -58Z" />
<glyph unicode="&#xa8;" horiz-adv-x="487" d="M290 593V733H427V593H290ZM60 593V733H197V593H60Z" />
<glyph unicode="&#xa9;" horiz-adv-x="823" d="M412 -15Q334 -15 266 14T147 94T66 214T37 360Q37 438 66 506T146 625T266 706T412 735Q490 735 558 706T677 626T758 506T787 360Q787 282 758 214T678 95T558 14T412 -15ZM412 41Q477 41 534 66T635 135T704 237T729
360Q729 425 704 483T636 585T535 654T412 679Q346 679 289 654T188 585T120 483T95 360Q95 295 119 237T187 135T288 66T412 41ZM418 140Q356 140 309 168T234 247T207 361Q207 425 234 474T308 551T417 580Q495 580 547 535T610 417H532Q525 462 494 488T418
514Q359 514 322 472T285 362Q285 292 322 249T419 206Q463 206 493 232T532 303H611Q599 229 547 185T418 140Z" />
<glyph unicode="&#xaa;" horiz-adv-x="375" d="M238 418Q234 430 233 445T231 481H229V620Q229 638 218 648T184 659Q164 659 152 652T136 634H48Q54 676 89 703T186 730Q251 730 285 701T319 616V481Q319 463 321 448T327 418H238ZM134 412Q91 412 66 435T40
497Q40 539 68 566T152 602L240 615V557L167 544Q149 540 140 533T130 511Q130 498 140 491T166 483Q191 483 210 498T229 534L237 481Q224 446 197 429T134 412Z" />
<glyph unicode="&#xab;" horiz-adv-x="547" d="M180 68L48 251L180 434H302L174 251L302 68H180ZM367 68L235 251L367 434H489L361 251L489 68H367Z" />
<glyph unicode="&#xae;" horiz-adv-x="823" d="M412 -15Q334 -15 266 14T147 94T66 214T37 360Q37 438 66 506T146 625T266 706T412 735Q490 735 558 706T677 626T758 506T787 360Q787 282 758 214T678 95T558 14T412 -15ZM412 41Q477 41 534 66T635 135T704 237T729
360Q729 425 704 483T636 585T535 654T412 679Q346 679 289 654T188 585T120 483T95 360Q95 295 119 237T187 135T288 66T412 41ZM255 145V575H440Q509 575 548 544T587 457Q587 369 473 345L475 361Q524 363 552 338T580 267V196Q580 186 581 174T585 145H506Q504
154 503 166T502 196V247Q502 287 483 307T425 327H291V389H436Q471 389 490 405T509 450Q509 480 491 495T436 510H333V145H255Z" />
<glyph unicode="&#xaf;" horiz-adv-x="411" d="M60 625V717H420V625H60Z" />
<glyph unicode="&#xb0;" horiz-adv-x="373" d="M187 449Q147 449 114 468T62 521T43 593Q43 632 62 664T114 716T187 735Q228 735 260 716T310 665T329 593Q329 554 311 521T260 469T187 449ZM187 517Q219 517 240 539T261 593Q261 624 240 645T187 667Q155 667
134 646T112 593Q112 561 133 539T187 517Z" />
<glyph unicode="&#xb4;" horiz-adv-x="354" d="M173 583H60L164 740H337L173 583Z" />
<glyph unicode="&#xb6;" horiz-adv-x="663" d="M282 -130V326H231Q174 326 128 350T56 419T29 520Q29 579 55 624T128 694T234 720H601V-130H481V625H402V-130H282Z" />
<glyph unicode="&#xb7;" horiz-adv-x="144" d="M0 305V449H145V305H0Z" />
<glyph unicode="&#xb8;" horiz-adv-x="301" d="M191 -215Q132 -215 97 -190T60 -121H144Q146 -137 158 -144T190 -152Q205 -152 216 -146T228 -127Q228 -112 210 -103T139 -91L165 12H240L227 -35Q272 -45 293 -68T315 -126Q315 -165 282 -190T191 -215Z" />
<glyph unicode="&#xba;" horiz-adv-x="411" d="M206 412Q155 412 117 432T58 489T37 572Q37 643 83 686T206 730Q283 730 329 687T375 572Q375 501 328 457T206 412ZM206 489Q239 489 260 512T281 573Q281 610 260 631T206 653Q173 653 152 631T130 573Q130 535
151 512T206 489Z" />
<glyph unicode="&#xbb;" horiz-adv-x="547" d="M367 434L499 251L367 68H245L373 251L245 434H367ZM180 434L312 251L180 68H58L186 251L58 434H180Z" />
<glyph unicode="&#xbf;" horiz-adv-x="580" d="M271 -215Q200 -215 145 -193T59 -129T27 -32Q27 11 41 41T76 92T123 130T169 164T205 204T219 257H342Q342 210 329 179T295 125T250 87T206 54T171 19T158 -31Q158 -68 190 -90T278 -112Q334 -112 374 -88T422
-16H547Q539 -78 502 -122T405 -191T271 -215ZM353 510V366H208V510H353Z" />
<glyph unicode="&#xc0;" horiz-adv-x="733" d="M28 0L293 720H405L156 0H28ZM571 0L323 720H441L705 0H571ZM165 283H559V179H165V283ZM343 793L180 950H353L457 793H343Z" />
<glyph unicode="&#xc1;" horiz-adv-x="733" d="M28 0L293 720H405L156 0H28ZM571 0L323 720H441L705 0H571ZM165 283H559V179H165V283ZM390 793H277L381 950H554L390 793Z" />
<glyph unicode="&#xc2;" horiz-adv-x="733" d="M28 0L293 720H405L156 0H28ZM571 0L323 720H441L705 0H571ZM165 283H559V179H165V283ZM169 793L300 950H433L564 793H456L312 923H421L277 793H169Z" />
<glyph unicode="&#xc3;" horiz-adv-x="733" d="M28 0L293 720H405L156 0H28ZM571 0L323 720H441L705 0H571ZM165 283H559V179H165V283ZM442 802Q414 802 394 810T356 830T322 850T287 859Q266 859 254 845T241 808H162Q162 846 177 877T222 926T293 945Q322 945
343 937T380 917T411 897T445 888Q467 888 479 902T492 939H571Q571 901 556 870T511 821T442 802Z" />
<glyph unicode="&#xc4;" horiz-adv-x="733" d="M28 0L293 720H405L156 0H28ZM571 0L323 720H441L705 0H571ZM165 283H559V179H165V283ZM413 803V943H550V803H413ZM183 803V943H320V803H183Z" />
<glyph unicode="&#xc5;" horiz-adv-x="733" d="M28 0L293 720H405L156 0H28ZM571 0L323 720H441L705 0H571ZM165 283H559V179H165V283ZM367 771Q321 771 290 802T259 879Q259 923 290 954T367 986Q413 986 443 955T474 879Q474 834 444 803T367 771ZM367 837Q384
837 395 849T407 879Q407 896 396 908T367 920Q349 920 338 908T326 879Q326 862 337 850T367 837Z" />
<glyph unicode="&#xc6;" horiz-adv-x="967" d="M28 0L293 720H406L156 0H28ZM483 0V720H613V0H483ZM545 0V103H917V0H545ZM234 320V421H882V320H234ZM337 617V720H907V617H337Z" />
<glyph unicode="&#xc7;" horiz-adv-x="747" d="M391 -10Q314 -10 250 17T137 95T63 213T37 362Q37 443 63 510T136 626T248 703T391 730Q477 730 546 696T659 601T714 456H586Q574 537 521 580T392 624Q325 624 275 592T197 502T169 363Q169 281 197 222T276 129T393
96Q467 96 520 139T587 263H716Q704 181 660 119T546 24T391 -10ZM379 -215Q320 -215 285 -190T248 -121H332Q334 -137 346 -144T378 -152Q393 -152 404 -146T416 -127Q416 -112 398 -103T327 -91L353 12H428L415 -35Q460 -45 481 -68T503 -126Q503 -165 470 -190T379
-215Z" />
<glyph unicode="&#xc8;" horiz-adv-x="630" d="M62 0V720H192V0H62ZM124 0V103H580V0H124ZM124 320V421H545V320H124ZM124 617V720H569V617H124ZM303 793L140 950H313L417 793H303Z" />
<glyph unicode="&#xc9;" horiz-adv-x="630" d="M62 0V720H192V0H62ZM124 0V103H580V0H124ZM124 320V421H545V320H124ZM124 617V720H569V617H124ZM349 793H236L340 950H513L349 793Z" />
<glyph unicode="&#xca;" horiz-adv-x="630" d="M62 0V720H192V0H62ZM124 0V103H580V0H124ZM124 320V421H545V320H124ZM124 617V720H569V617H124ZM129 793L260 950H393L524 793H416L272 923H381L237 793H129Z" />
<glyph unicode="&#xcb;" horiz-adv-x="630" d="M62 0V720H192V0H62ZM124 0V103H580V0H124ZM124 320V421H545V320H124ZM124 617V720H569V617H124ZM373 803V943H510V803H373ZM143 803V943H280V803H143Z" />
<glyph unicode="&#xcc;" horiz-adv-x="254" d="M62 0V720H192V0H62ZM103 793L-60 950H113L217 793H103Z" />
<glyph unicode="&#xcd;" horiz-adv-x="254" d="M62 0V720H192V0H62ZM150 793H37L141 950H314L150 793Z" />
<glyph unicode="&#xce;" horiz-adv-x="254" d="M62 0V720H192V0H62ZM-71 793L60 950H193L324 793H216L72 923H181L37 793H-71Z" />
<glyph unicode="&#xcf;" horiz-adv-x="254" d="M62 0V720H192V0H62ZM173 803V943H310V803H173ZM-57 803V943H80V803H-57Z" />
<glyph unicode="&#xd0;" horiz-adv-x="765" d="M7 310V413H390V310H7ZM154 0V104H340Q422 104 480 137T568 229T599 364Q599 439 569 496T481 584T340 616H156V720H340Q458 720 546 676T682 552T731 362Q731 253 682 172T546 45T341 0H154ZM75 0V720H205V0H75Z" />
<glyph unicode="&#xd1;" horiz-adv-x="725" d="M62 0V720H223L574 94L537 85V720H663V0H502L151 626L188 635V0H62ZM438 802Q410 802 390 810T352 830T318 850T283 859Q262 859 250 845T237 808H158Q158 846 173 877T218 926T289 945Q318 945 339 937T376 917T407
897T441 888Q463 888 475 902T488 939H567Q567 901 552 870T507 821T438 802Z" />
<glyph unicode="&#xd2;" horiz-adv-x="794" d="M397 -10Q319 -10 253 17T139 94T64 212T37 363Q37 472 83 554T210 683T396 730Q502 730 583 684T711 554T757 362Q757 280 731 212T656 94T541 17T397 -10ZM396 96Q464 96 515 130T596 224T625 364Q625 442 597
500T517 591T396 624Q328 624 277 592T197 501T169 364Q169 284 197 224T277 130T396 96ZM373 793L210 950H383L487 793H373Z" />
<glyph unicode="&#xd3;" horiz-adv-x="794" d="M397 -10Q319 -10 253 17T139 94T64 212T37 363Q37 472 83 554T210 683T396 730Q502 730 583 684T711 554T757 362Q757 280 731 212T656 94T541 17T397 -10ZM396 96Q464 96 515 130T596 224T625 364Q625 442 597
500T517 591T396 624Q328 624 277 592T197 501T169 364Q169 284 197 224T277 130T396 96ZM420 793H307L411 950H584L420 793Z" />
<glyph unicode="&#xd4;" horiz-adv-x="794" d="M397 -10Q319 -10 253 17T139 94T64 212T37 363Q37 472 83 554T210 683T396 730Q502 730 583 684T711 554T757 362Q757 280 731 212T656 94T541 17T397 -10ZM396 96Q464 96 515 130T596 224T625 364Q625 442 597
500T517 591T396 624Q328 624 277 592T197 501T169 364Q169 284 197 224T277 130T396 96ZM199 793L330 950H463L594 793H486L342 923H451L307 793H199Z" />
<glyph unicode="&#xd5;" horiz-adv-x="794" d="M397 -10Q319 -10 253 17T139 94T64 212T37 363Q37 472 83 554T210 683T396 730Q502 730 583 684T711 554T757 362Q757 280 731 212T656 94T541 17T397 -10ZM396 96Q464 96 515 130T596 224T625 364Q625 442 597
500T517 591T396 624Q328 624 277 592T197 501T169 364Q169 284 197 224T277 130T396 96ZM472 802Q444 802 424 810T386 830T352 850T317 859Q296 859 284 845T271 808H192Q192 846 207 877T252 926T323 945Q352 945 373 937T410 917T441 897T475 888Q497 888 509
902T522 939H601Q601 901 586 870T541 821T472 802Z" />
<glyph unicode="&#xd6;" horiz-adv-x="794" d="M397 -10Q319 -10 253 17T139 94T64 212T37 363Q37 472 83 554T210 683T396 730Q502 730 583 684T711 554T757 362Q757 280 731 212T656 94T541 17T397 -10ZM396 96Q464 96 515 130T596 224T625 364Q625 442 597
500T517 591T396 624Q328 624 277 592T197 501T169 364Q169 284 197 224T277 130T396 96ZM443 803V943H580V803H443ZM213 803V943H350V803H213Z" />
<glyph unicode="&#xd7;" horiz-adv-x="544" d="M422 154L54 521L123 590L491 222L422 154ZM123 154L54 222L422 590L491 521L123 154Z" />
<glyph unicode="&#xd8;" horiz-adv-x="794" d="M119 -10L49 52L667 730L737 668L119 -10ZM397 -10Q319 -10 253 17T139 94T64 212T37 363Q37 472 83 554T210 683T396 730Q502 730 583 684T711 554T757 362Q757 280 731 212T656 94T541 17T397 -10ZM396 96Q464
96 515 130T596 224T625 364Q625 442 597 500T517 591T396 624Q328 624 277 592T197 501T169 364Q169 284 197 224T277 130T396 96Z" />
<glyph unicode="&#xd9;" horiz-adv-x="704" d="M351 -10Q205 -10 130 73T55 311V720H185V292Q185 193 229 145T352 96Q431 96 475 144T519 291V720H649V310Q649 156 574 73T351 -10ZM328 793L165 950H338L442 793H328Z" />
<glyph unicode="&#xda;" horiz-adv-x="704" d="M351 -10Q205 -10 130 73T55 311V720H185V292Q185 193 229 145T352 96Q431 96 475 144T519 291V720H649V310Q649 156 574 73T351 -10ZM375 793H262L366 950H539L375 793Z" />
<glyph unicode="&#xdb;" horiz-adv-x="704" d="M351 -10Q205 -10 130 73T55 311V720H185V292Q185 193 229 145T352 96Q431 96 475 144T519 291V720H649V310Q649 156 574 73T351 -10ZM154 793L285 950H418L549 793H441L297 923H406L262 793H154Z" />
<glyph unicode="&#xdc;" horiz-adv-x="704" d="M351 -10Q205 -10 130 73T55 311V720H185V292Q185 193 229 145T352 96Q431 96 475 144T519 291V720H649V310Q649 156 574 73T351 -10ZM398 803V943H535V803H398ZM168 803V943H305V803H168Z" />
<glyph unicode="&#xdd;" horiz-adv-x="700" d="M285 0V303L15 720H172L392 351H322L541 720H685L415 303V0H285ZM373 793H260L364 950H537L373 793Z" />
<glyph unicode="&#xde;" horiz-adv-x="664" d="M161 153V256H375Q437 256 471 287T505 370Q505 421 471 452T375 484H161V587H383Q461 587 517 560T604 484T635 370Q635 306 605 257T518 181T383 153H161ZM59 0V720H189V0H59Z" />
<glyph unicode="&#xdf;" horiz-adv-x="631" d="M349 -10Q323 -10 302 -7T267 3V101Q281 97 296 95T331 92Q401 92 434 122T468 207Q468 260 431 292T328 325H277V426H320Q351 426 375 438T414 472T429 524Q429 573 400 601T315 630Q257 630 225 594T193 487V0H67V483Q67
596 130 663T317 730Q392 730 446 706T531 638T561 536Q561 484 537 447T471 389T376 369L379 390Q449 390 498 365T573 296T599 196Q599 134 569 88T482 16T349 -10Z" />
<glyph unicode="&#xe0;" horiz-adv-x="558" d="M385 0Q380 20 378 44T375 102H371V344Q371 384 349 404T280 425Q235 425 209 409T176 361H55Q63 432 123 476T284 520Q389 520 443 473T497 333V102Q497 78 500 53T511 0H385ZM208 -10Q131 -10 86 28T40 132Q40
202 91 243T235 298L394 322V242L256 221Q211 214 189 196T166 146Q166 117 187 102T245 86Q299 86 335 113T371 179L385 102Q365 47 320 19T208 -10ZM261 583L98 740H271L375 583H261Z" />
<glyph unicode="&#xe1;" horiz-adv-x="558" d="M385 0Q380 20 378 44T375 102H371V344Q371 384 349 404T280 425Q235 425 209 409T176 361H55Q63 432 123 476T284 520Q389 520 443 473T497 333V102Q497 78 500 53T511 0H385ZM208 -10Q131 -10 86 28T40 132Q40
202 91 243T235 298L394 322V242L256 221Q211 214 189 196T166 146Q166 117 187 102T245 86Q299 86 335 113T371 179L385 102Q365 47 320 19T208 -10ZM308 583H195L299 740H472L308 583Z" />
<glyph unicode="&#xe2;" horiz-adv-x="558" d="M385 0Q380 20 378 44T375 102H371V344Q371 384 349 404T280 425Q235 425 209 409T176 361H55Q63 432 123 476T284 520Q389 520 443 473T497 333V102Q497 78 500 53T511 0H385ZM208 -10Q131 -10 86 28T40 132Q40
202 91 243T235 298L394 322V242L256 221Q211 214 189 196T166 146Q166 117 187 102T245 86Q299 86 335 113T371 179L385 102Q365 47 320 19T208 -10ZM87 583L218 740H351L482 583H374L230 713H339L195 583H87Z" />
<glyph unicode="&#xe3;" horiz-adv-x="558" d="M385 0Q380 20 378 44T375 102H371V344Q371 384 349 404T280 425Q235 425 209 409T176 361H55Q63 432 123 476T284 520Q389 520 443 473T497 333V102Q497 78 500 53T511 0H385ZM208 -10Q131 -10 86 28T40 132Q40
202 91 243T235 298L394 322V242L256 221Q211 214 189 196T166 146Q166 117 187 102T245 86Q299 86 335 113T371 179L385 102Q365 47 320 19T208 -10ZM360 592Q332 592 312 600T274 620T240 640T205 649Q184 649 172 635T159 598H80Q80 636 95 667T140 716T211
735Q240 735 261 727T298 707T329 687T363 678Q385 678 397 692T410 729H489Q489 691 474 660T429 611T360 592Z" />
<glyph unicode="&#xe4;" horiz-adv-x="558" d="M385 0Q380 20 378 44T375 102H371V344Q371 384 349 404T280 425Q235 425 209 409T176 361H55Q63 432 123 476T284 520Q389 520 443 473T497 333V102Q497 78 500 53T511 0H385ZM208 -10Q131 -10 86 28T40 132Q40
202 91 243T235 298L394 322V242L256 221Q211 214 189 196T166 146Q166 117 187 102T245 86Q299 86 335 113T371 179L385 102Q365 47 320 19T208 -10ZM331 593V733H468V593H331ZM101 593V733H238V593H101Z" />
<glyph unicode="&#xe5;" horiz-adv-x="558" d="M385 0Q380 20 378 44T375 102H371V344Q371 384 349 404T280 425Q235 425 209 409T176 361H55Q63 432 123 476T284 520Q389 520 443 473T497 333V102Q497 78 500 53T511 0H385ZM208 -10Q131 -10 86 28T40 132Q40
202 91 243T235 298L394 322V242L256 221Q211 214 189 196T166 146Q166 117 187 102T245 86Q299 86 335 113T371 179L385 102Q365 47 320 19T208 -10ZM285 561Q239 561 208 592T177 669Q177 713 208 744T285 776Q331 776 361 745T392 669Q392 624 362 593T285 561ZM285
627Q302 627 313 639T325 669Q325 686 314 698T285 710Q267 710 256 698T244 669Q244 652 255 640T285 627Z" />
<glyph unicode="&#xe6;" horiz-adv-x="880" d="M367 142V344Q367 384 344 404T277 425Q236 425 209 409T176 361H54Q63 432 120 476T276 520Q379 520 432 473T485 333V142H367ZM213 -10Q135 -10 88 28T40 134Q40 195 84 236T229 294L378 317V237L258 217Q208 209
187 191T166 144Q166 116 186 101T247 86Q276 86 303 98T349 132T367 179L441 142Q406 57 350 24T213 -10ZM617 -10Q540 -10 484 24T398 118T368 256Q368 334 398 393T484 486T614 520Q686 520 739 489T823 400T853 267Q853 253 852 241T849 217H437V305H759L735
281Q735 353 705 389T618 425Q578 425 548 407T502 351T485 254Q485 172 519 129T617 85Q656 85 680 100T718 146H839Q814 74 757 32T617 -10Z" />
<glyph unicode="&#xe7;" horiz-adv-x="552" d="M288 -10Q211 -10 153 24T61 118T27 256Q27 333 60 392T152 486T288 520Q351 520 402 497T486 431T528 332H407Q396 373 365 396T290 419Q249 419 220 399T174 342T158 256Q158 206 174 169T220 112T290 91Q334 91
365 114T407 178H528Q519 122 486 80T402 14T288 -10ZM275 -215Q216 -215 181 -190T144 -121H228Q230 -137 242 -144T274 -152Q289 -152 300 -146T312 -127Q312 -112 294 -103T223 -91L249 12H324L311 -35Q356 -45 377 -68T399 -126Q399 -165 366 -190T275 -215Z"
/>
<glyph unicode="&#xe8;" horiz-adv-x="571" d="M296 -10Q215 -10 155 24T61 118T27 256Q27 334 60 393T154 486T294 520Q370 520 426 489T513 400T544 267Q544 253 543 241T540 217H105V305H443L417 281Q417 353 384 389T292 425Q228 425 191 381T153 254Q153
172 190 129T297 85Q337 85 367 100T411 146H530Q505 74 446 32T296 -10ZM272 583L109 740H282L386 583H272Z" />
<glyph unicode="&#xe9;" horiz-adv-x="571" d="M296 -10Q215 -10 155 24T61 118T27 256Q27 334 60 393T154 486T294 520Q370 520 426 489T513 400T544 267Q544 253 543 241T540 217H105V305H443L417 281Q417 353 384 389T292 425Q228 425 191 381T153 254Q153
172 190 129T297 85Q337 85 367 100T411 146H530Q505 74 446 32T296 -10ZM319 583H206L310 740H483L319 583Z" />
<glyph unicode="&#xea;" horiz-adv-x="571" d="M296 -10Q215 -10 155 24T61 118T27 256Q27 334 60 393T154 486T294 520Q370 520 426 489T513 400T544 267Q544 253 543 241T540 217H105V305H443L417 281Q417 353 384 389T292 425Q228 425 191 381T153 254Q153
172 190 129T297 85Q337 85 367 100T411 146H530Q505 74 446 32T296 -10ZM98 583L229 740H362L493 583H385L241 713H350L206 583H98Z" />
<glyph unicode="&#xeb;" horiz-adv-x="571" d="M296 -10Q215 -10 155 24T61 118T27 256Q27 334 60 393T154 486T294 520Q370 520 426 489T513 400T544 267Q544 253 543 241T540 217H105V305H443L417 281Q417 353 384 389T292 425Q228 425 191 381T153 254Q153
172 190 129T297 85Q337 85 367 100T411 146H530Q505 74 446 32T296 -10ZM342 593V733H479V593H342ZM112 593V733H249V593H112Z" />
<glyph unicode="&#xec;" horiz-adv-x="260" d="M67 0V510H193V0H67ZM362 583L199 740H372L476 583H362Z" />
<glyph unicode="&#xed;" horiz-adv-x="260" d="M67 0V510H193V0H67ZM409 583H296L400 740H573L409 583Z" />
<glyph unicode="&#xee;" horiz-adv-x="260" d="M67 0V510H193V0H67ZM188 583L319 740H452L583 583H475L331 713H440L296 583H188Z" />
<glyph unicode="&#xef;" horiz-adv-x="260" d="M67 0V510H193V0H67ZM432 593V733H569V593H432ZM202 593V733H339V593H202Z" />
<glyph unicode="&#xf0;" horiz-adv-x="608" d="M297 -10Q222 -10 162 20T68 106T33 243Q33 323 68 378T161 464T284 494Q339 494 381 475T449 421T483 338L450 289V354Q450 446 413 510T301 609T110 643L129 730Q235 730 318 703T459 625T547 498T578 326Q578
166 507 78T297 -10ZM299 93Q337 93 369 110T420 161T440 247Q440 298 421 330T370 377T301 393Q245 393 207 356T169 243Q169 191 186 158T234 109T299 93ZM205 511L164 576L450 756L491 690L205 511Z" />
<glyph unicode="&#xf1;" horiz-adv-x="612" d="M67 0V510H190V390H193V0H67ZM425 0V322Q425 369 401 393T331 417Q291 417 260 399T211 349T193 275L180 397Q206 453 256 486T376 520Q459 520 505 473T552 348V0H425ZM406 592Q378 592 358 600T320 620T286 640T251
649Q230 649 218 635T205 598H126Q126 636 141 667T186 716T257 735Q286 735 307 727T344 707T375 687T409 678Q431 678 443 692T456 729H535Q535 691 520 660T475 611T406 592Z" />
<glyph unicode="&#xf2;" horiz-adv-x="597" d="M299 -10Q218 -10 157 24T61 118T27 257Q27 335 61 394T156 486T299 520Q381 520 442 487T537 394T571 257Q571 179 537 119T441 24T299 -10ZM299 91Q339 91 371 111T421 169T439 258Q439 333 400 376T299 419Q238
419 198 376T158 258Q158 207 176 170T226 112T299 91ZM275 583L112 740H285L389 583H275Z" />
<glyph unicode="&#xf3;" horiz-adv-x="597" d="M299 -10Q218 -10 157 24T61 118T27 257Q27 335 61 394T156 486T299 520Q381 520 442 487T537 394T571 257Q571 179 537 119T441 24T299 -10ZM299 91Q339 91 371 111T421 169T439 258Q439 333 400 376T299 419Q238
419 198 376T158 258Q158 207 176 170T226 112T299 91ZM322 583H209L313 740H486L322 583Z" />
<glyph unicode="&#xf4;" horiz-adv-x="597" d="M299 -10Q218 -10 157 24T61 118T27 257Q27 335 61 394T156 486T299 520Q381 520 442 487T537 394T571 257Q571 179 537 119T441 24T299 -10ZM299 91Q339 91 371 111T421 169T439 258Q439 333 400 376T299 419Q238
419 198 376T158 258Q158 207 176 170T226 112T299 91ZM101 583L232 740H365L496 583H388L244 713H353L209 583H101Z" />
<glyph unicode="&#xf5;" horiz-adv-x="597" d="M299 -10Q218 -10 157 24T61 118T27 257Q27 335 61 394T156 486T299 520Q381 520 442 487T537 394T571 257Q571 179 537 119T441 24T299 -10ZM299 91Q339 91 371 111T421 169T439 258Q439 333 400 376T299 419Q238
419 198 376T158 258Q158 207 176 170T226 112T299 91ZM374 592Q346 592 326 600T288 620T254 640T219 649Q198 649 186 635T173 598H94Q94 636 109 667T154 716T225 735Q254 735 275 727T312 707T343 687T377 678Q399 678 411 692T424 729H503Q503 691 488 660T443
611T374 592Z" />
<glyph unicode="&#xf6;" horiz-adv-x="597" d="M299 -10Q218 -10 157 24T61 118T27 257Q27 335 61 394T156 486T299 520Q381 520 442 487T537 394T571 257Q571 179 537 119T441 24T299 -10ZM299 91Q339 91 371 111T421 169T439 258Q439 333 400 376T299 419Q238
419 198 376T158 258Q158 207 176 170T226 112T299 91ZM345 593V733H482V593H345ZM115 593V733H252V593H115Z" />
<glyph unicode="&#xf7;" horiz-adv-x="544" d="M53 324V418H491V324H53ZM273 479Q243 479 223 498T203 548Q203 578 223 597T273 616Q300 616 320 597T341 548Q341 517 321 498T273 479ZM273 126Q243 126 223 145T203 196Q203 225 223 244T273 264Q300 264 320
245T341 196Q341 164 321 145T273 126Z" />
<glyph unicode="&#xf8;" horiz-adv-x="597" d="M299 -10Q218 -10 157 24T61 118T27 257Q27 335 61 394T156 486T299 520Q381 520 442 487T537 394T571 257Q571 179 537 119T441 24T299 -10ZM299 88Q341 88 373 109T424 168T443 258Q443 335 403 378T299 422Q235
422 195 379T155 258Q155 206 173 168T223 109T299 88ZM89 -14L30 46L508 524L568 464L89 -14Z" />
<glyph unicode="&#xf9;" horiz-adv-x="604" d="M232 -10Q179 -10 141 12T82 74T61 162V510H187V188Q187 141 210 117T277 93Q316 93 345 111T392 161T410 235L423 113Q398 57 349 24T232 -10ZM414 0V120H410V510H537V0H414ZM279 583L116 740H289L393 583H279Z" />
<glyph unicode="&#xfa;" horiz-adv-x="604" d="M232 -10Q179 -10 141 12T82 74T61 162V510H187V188Q187 141 210 117T277 93Q316 93 345 111T392 161T410 235L423 113Q398 57 349 24T232 -10ZM414 0V120H410V510H537V0H414ZM325 583H212L316 740H489L325 583Z" />
<glyph unicode="&#xfb;" horiz-adv-x="604" d="M232 -10Q179 -10 141 12T82 74T61 162V510H187V188Q187 141 210 117T277 93Q316 93 345 111T392 161T410 235L423 113Q398 57 349 24T232 -10ZM414 0V120H410V510H537V0H414ZM105 583L236 740H369L500 583H392L248
713H357L213 583H105Z" />
<glyph unicode="&#xfc;" horiz-adv-x="604" d="M232 -10Q179 -10 141 12T82 74T61 162V510H187V188Q187 141 210 117T277 93Q316 93 345 111T392 161T410 235L423 113Q398 57 349 24T232 -10ZM414 0V120H410V510H537V0H414ZM349 593V733H486V593H349ZM119 593V733H256V593H119Z"
/>
<glyph unicode="&#xfd;" horiz-adv-x="536" d="M99 -205L231 91L254 129L398 510H532L227 -205H99ZM212 5L5 510H142L315 52L212 5ZM292 583H179L283 740H456L292 583Z" />
<glyph unicode="&#xfe;" horiz-adv-x="621" d="M358 -10Q285 -10 240 24T183 120L193 121V-205H67V720H193V395L180 397Q194 454 244 487T366 520Q434 520 484 488T563 396T591 257Q591 176 562 116T481 23T358 -10ZM326 94Q388 94 423 136T459 256Q459 333 423
375T325 417Q263 417 227 375T191 255Q191 178 227 136T326 94Z" />
<glyph unicode="&#xff;" horiz-adv-x="536" d="M99 -205L231 91L254 129L398 510H532L227 -205H99ZM212 5L5 510H142L315 52L212 5ZM315 593V733H452V593H315ZM85 593V733H222V593H85Z" />
<glyph unicode="&#x2013;" horiz-adv-x="599" d="M67 224V320H533V224H67Z" />
<glyph unicode="&#x2014;" horiz-adv-x="899" d="M67 224V320H833V224H67Z" />
<glyph unicode="&#x2018;" horiz-adv-x="275" d="M65 454V554Q65 626 101 677T213 740V678Q169 672 154 648T138 578L89 588H211V454H65Z" />
<glyph unicode="&#x2019;" horiz-adv-x="275" d="M62 455V517Q107 523 122 547T137 617L186 607H64V741H210V641Q210 569 175 518T62 455Z" />
<glyph unicode="&#x201a;" horiz-adv-x="271" d="M320 64V126Q361 139 374 165T388 236L439 224H319V368H462V263Q462 189 430 137T320 64Z" />
<glyph unicode="&#x201c;" horiz-adv-x="471" d="M261 454V554Q261 626 297 677T409 740V678Q365 672 350 648T334 578L285 588H407V454H261ZM65 454V554Q65 626 101 677T213 740V678Q169 672 154 648T138 578L89 588H211V454H65Z" />
<glyph unicode="&#x201d;" horiz-adv-x="471" d="M258 455V517Q303 523 318 547T333 617L382 607H260V741H406V641Q406 569 371 518T258 455ZM62 455V517Q107 523 122 547T137 617L186 607H64V741H210V641Q210 569 175 518T62 455Z" />
<glyph unicode="&#x201e;" horiz-adv-x="464" d="M256 -193V-131Q297 -118 310 -92T324 -21L375 -33H255V111H398V6Q398 -68 366 -120T256 -193ZM320 63V125Q361 138 374 164T388 235L439 223H319V367H462V262Q462 188 430 136T320 63Z" />
<glyph unicode="&#x2022;" horiz-adv-x="336" d="M65 263V469H271V263H65Z" />
<glyph unicode="&#x2039;" horiz-adv-x="361" d="M180 68L48 251L180 434H302L174 251L302 68H180Z" />
<glyph unicode="&#x203a;" horiz-adv-x="361" d="M180 68H58L186 251L58 434H180L312 251L180 68Z" />
</font>
</defs>
</svg>
