<?xml version="1.0" standalone="no"?>
<!DOCTYPE svg PUBLIC "-//W3C//DTD SVG 1.1//EN" "http://www.w3.org/Graphics/SVG/1.1/DTD/svg11.dtd">
<svg xmlns="http://www.w3.org/2000/svg">
<defs >
<font id="InstrumentSans" horiz-adv-x="570" ><font-face
    font-family="Instrument Sans Medium"
    units-per-em="1000"
    panose-1="0 0 0 0 0 0 0 0 0 0"
    ascent="970"
    descent="-250"
    alphabetic="0" />
<glyph unicode=" " horiz-adv-x="197" />
<glyph unicode="!" horiz-adv-x="284" d="M101 231L85 740H198L183 231H101ZM80 0V124H204V0H80Z" />
<glyph unicode="&quot;" horiz-adv-x="417" d="M103 470L74 601Q67 628 64 648T61 685Q61 702 68 717T88 741T122 750Q142 750 156 741T176 717T183 685Q183 668 180 648T170 601L141 470H103ZM276 470L247 601Q240 628 237 648T234 685Q234 702 241 717T261 741T295
750Q315 750 329 741T349 717T356 685Q356 668 353 648T343 601L314 470H276Z" />
<glyph unicode="#" horiz-adv-x="721" d="M145 0L245 720H335L235 0H145ZM386 0L486 720H576L476 0H386ZM64 522H683V436H64V522ZM39 294H658V208H39V294Z" />
<glyph unicode="$" horiz-adv-x="623" d="M277 696V830H362V696H277ZM362 20V-109H277V20H362ZM335 -9Q205 -9 127 53T36 230H139Q148 155 199 116T337 77Q410 77 447 104T485 181Q485 226 460 252T381 296L256 336Q160 367 115 414T70 533Q70 594 100 638T186
706T316 731Q430 731 498 674T577 514H474Q462 582 422 613T312 645Q246 645 209 619T172 546Q172 508 196 483T278 439L409 397Q500 368 543 318T587 192Q587 96 521 44T335 -9Z" />
<glyph unicode="%" horiz-adv-x="786" d="M82 0L616 720H709L176 0H82ZM587 -10Q545 -10 508 10T448 71T425 175Q425 238 447 278T507 339T587 359Q632 359 669 339T729 279T751 175Q751 112 728 71T668 10T587 -10ZM587 55Q625 55 649 86T674 176Q674 233 650
263T587 294Q549 294 526 264T503 176Q503 117 526 86T587 55ZM197 361Q154 361 117 381T58 442T35 546Q35 609 57 649T117 710T197 730Q242 730 279 710T338 650T360 546Q360 483 337 442T277 381T197 361ZM197 426Q234 426 258 457T283 547Q283 604 259 634T197
665Q159 665 136 635T112 547Q112 488 135 457T197 426Z" />
<glyph unicode="&amp;" horiz-adv-x="761" d="M608 0L226 397Q193 432 173 460T144 514T135 569Q135 615 160 651T228 708T328 730Q383 730 426 710T496 654T522 566Q522 504 476 456T335 376L283 439Q356 459 391 491T427 565Q427 604 399 627T328 651Q286 651
261 628T235 568Q235 549 243 530T272 484T336 414L742 0H608ZM308 -10Q227 -10 166 17T72 92T38 204Q38 286 94 345T253 429L305 367Q249 352 213 330T159 280T142 214Q142 149 188 113T314 77Q372 77 419 96T502 154T556 251T575 388H674Q674 316 657 255T608
144T530 60T429 8T308 -10Z" />
<glyph unicode="&apos;" horiz-adv-x="244" d="M103 470L74 601Q67 628 64 648T61 685Q61 702 68 717T88 741T122 750Q142 750 156 741T176 717T183 685Q183 668 180 648T170 601L141 470H103Z" />
<glyph unicode="(" horiz-adv-x="423" d="M276 -110Q174 -17 126 94T77 320Q77 433 126 544T276 750H376Q275 656 225 549T174 320Q174 198 226 91T376 -110H276Z" />
<glyph unicode=")" horiz-adv-x="423" d="M147 754Q249 661 297 550T346 324Q346 211 297 100T147 -106H47Q148 -12 198 95T249 324Q249 446 197 553T47 754H147Z" />
<glyph unicode="*" horiz-adv-x="419" d="M164 427L188 546L92 467L47 543L164 583L47 624L92 700L188 621L164 740H255L232 621L327 700L372 624L255 583L372 543L327 467L232 546L255 427H164Z" />
<glyph unicode="+" horiz-adv-x="538" d="M227 146V597H311V146H227ZM57 330V412H481V330H57Z" />
<glyph unicode="," horiz-adv-x="265" d="M72 -152V-100Q107 -88 120 -64T134 7L175 0H71V123H194V30Q194 -39 166 -86T72 -152Z" />
<glyph unicode="-" horiz-adv-x="499" d="M73 227V317H426V227H73Z" />
<glyph unicode="." horiz-adv-x="265" d="M71 0V124H194V0H71Z" />
<glyph unicode="/" horiz-adv-x="444" d="M48 -67L305 757H395L138 -67H48Z" />
<glyph unicode="0" horiz-adv-x="671" d="M336 -10Q249 -10 183 37T80 169T43 363Q43 472 80 554T183 683T336 730Q423 730 488 684T591 555T628 363Q628 253 591 169T488 38T336 -10ZM336 81Q393 81 433 116T493 215T514 364Q514 448 494 510T434 605T336 639Q277
639 238 605T178 510T157 364Q157 279 178 215T238 116T336 81Z" />
<glyph unicode="1" horiz-adv-x="389" d="M212 0V621L231 613Q218 585 186 558T112 512T23 484V586Q67 593 109 612T184 660T233 720H315V0H212Z" />
<glyph unicode="2" horiz-adv-x="551" d="M35 0V87Q140 173 210 237T323 351T383 442T401 524Q401 580 369 611T279 643Q220 643 183 609T137 511H29Q39 610 106 670T285 730Q391 730 452 674T514 520Q514 470 496 421T435 318T323 200T148 53L123 87H527V0H35Z" />
<glyph unicode="3" horiz-adv-x="577" d="M297 -10Q223 -10 167 17T76 95T33 221H142Q152 150 191 114T295 77Q355 77 391 110T427 201Q427 260 392 297T292 334H211V419H289Q347 419 379 450T411 532Q411 584 380 613T291 643Q237 643 199 611T152 518H43Q50
583 82 630T169 704T294 730Q363 730 414 707T494 641T523 540Q523 490 500 451T440 391T356 369L352 390Q410 390 452 365T518 296T541 196Q541 134 510 88T423 16T297 -10Z" />
<glyph unicode="4" horiz-adv-x="607" d="M386 0V190L390 210V621L428 610L128 204L87 243H581V156H31V237L390 720H495V0H386Z" />
<glyph unicode="5" horiz-adv-x="578" d="M293 -10Q184 -10 118 47T37 200H146Q158 142 197 110T290 77Q348 77 387 114T427 232Q427 311 388 351T288 392Q247 392 215 375T169 329H73L108 720H499V633H158L204 656L183 388L154 395Q174 429 213 450T311 472Q378
472 430 443T511 360T540 232Q540 156 510 102T424 19T293 -10Z" />
<glyph unicode="6" horiz-adv-x="607" d="M318 -10Q186 -10 115 82T43 348Q43 468 77 553T175 684T326 730Q422 730 484 676T560 528H451Q443 584 410 613T325 643Q241 643 199 571T157 354V289L131 298Q141 345 171 380T245 434T343 454Q412 454 463 425T543
344T572 222Q572 152 541 100T452 19T318 -10ZM317 77Q379 77 418 115T458 222Q458 292 419 330T315 369Q251 369 208 332T165 229Q165 183 185 149T239 96T317 77Z" />
<glyph unicode="7" horiz-adv-x="546" d="M159 0Q173 170 240 334T430 658L433 633H24V720H525V643Q449 533 397 428T316 217T277 0H159Z" />
<glyph unicode="8" horiz-adv-x="590" d="M295 -10Q217 -10 160 17T71 91T39 199Q39 253 62 296T127 364T220 390L227 369Q176 369 138 390T79 450T57 537Q57 594 87 637T170 705T296 730Q367 730 420 706T503 638T533 537Q533 489 512 451T452 391T362 369L370
390Q422 390 463 365T527 296T551 198Q551 138 520 91T431 17T295 -10ZM295 77Q361 77 399 112T438 208Q438 267 400 301T295 335Q229 335 191 301T152 208Q152 148 190 113T295 77ZM295 418Q353 418 386 448T420 529Q420 581 386 612T295 643Q238 643 204 612T170
529Q170 478 204 448T295 418Z" />
<glyph unicode="9" horiz-adv-x="615" d="M289 -10Q221 -10 170 16T87 91T48 211H157Q166 141 201 109T292 77Q334 77 363 94T411 146T439 235T448 366V431L477 429Q467 382 437 347T363 292T264 273Q197 273 146 302T66 382T37 500Q37 570 69 621T158 701T291
730Q424 730 494 637T565 366Q565 247 533 163T439 34T289 -10ZM295 358Q360 358 399 394T439 494Q439 537 421 570T369 623T292 643Q229 643 192 604T154 499Q154 436 191 397T295 358Z" />
<glyph unicode=":" horiz-adv-x="265" d="M71 0V124H194V0H71ZM71 362V486H194V362H71Z" />
<glyph unicode=";" horiz-adv-x="265" d="M72 -152V-100Q107 -88 120 -64T134 7L175 0H71V123H194V30Q194 -39 166 -86T72 -152ZM71 362V486H194V362H71Z" />
<glyph unicode="&lt;" horiz-adv-x="538" d="M481 573V487L128 359V383L481 262V175L57 325V417L481 573Z" />
<glyph unicode="=" horiz-adv-x="538" d="M57 430V512H481V430H57ZM57 230V312H481V230H57Z" />
<glyph unicode="&gt;" horiz-adv-x="538" d="M57 169V255L410 383V359L57 480V567L481 417V325L57 169Z" />
<glyph unicode="?" horiz-adv-x="574" d="M246 231Q246 285 259 321T295 383T342 427T389 464T426 504T440 558Q440 606 404 634T306 663Q237 663 194 629T141 531H39Q47 598 82 647T175 723T308 750Q379 750 432 727T515 660T545 558Q545 513 531 482T494 430T445
390T397 351T360 302T345 231H246ZM233 0V124H357V0H233Z" />
<glyph unicode="@" horiz-adv-x="860" d="M430 -10Q313 -10 226 31T91 148T43 327Q43 412 73 485T161 614T297 699T475 730Q577 730 654 693T774 590T817 436Q817 379 800 328T751 237T680 175T596 152Q561 152 537 167T505 210T509 278L512 247Q487 202 449 177T364
152Q298 152 257 199T215 323Q215 374 231 419T276 498T342 551T421 571Q483 571 517 537T549 448L538 449L564 548H660L595 296Q585 258 591 240T620 222Q644 222 665 239T703 284T730 350T740 428Q740 499 707 550T614 630T473 658Q391 658 326 633T215 563T145
458T121 329Q121 247 157 187T262 95T427 62Q480 62 533 73T635 107L663 42Q618 18 557 4T430 -10ZM402 232Q426 232 447 244T484 278T509 328T519 388Q519 435 496 463T432 491Q408 491 387 480T349 447T323 398T314 337Q314 288 338 260T402 232Z" />
<glyph unicode="A" horiz-adv-x="731" d="M32 0L303 720H395L136 0H32ZM589 0L330 720H427L699 0H589ZM169 287H555V199H169V287Z" />
<glyph unicode="B" horiz-adv-x="640" d="M152 0V82H367Q428 82 462 115T497 205Q497 265 461 301T361 337H152V417H351Q412 417 445 446T479 531Q479 583 448 610T355 638H152V720H371Q469 720 527 673T585 543Q585 491 562 452T497 391T404 369L409 390Q465
390 509 365T579 295T605 193Q605 136 578 92T500 24T384 0H152ZM74 0V720H180V0H74Z" />
<glyph unicode="C" horiz-adv-x="744" d="M391 -10Q316 -10 252 17T142 94T69 212T43 361Q43 442 68 509T140 626T251 703T390 730Q474 730 541 697T650 602T703 460H599Q586 545 531 592T391 640Q320 640 266 606T181 509T151 361Q151 277 181 214T266 115T391
80Q475 80 531 127T600 260H705Q694 178 651 118T542 24T391 -10Z" />
<glyph unicode="D" horiz-adv-x="753" d="M138 0V88H327Q413 88 474 123T569 220T602 364Q602 445 570 505T476 598T327 632H139V720H327Q443 720 529 676T662 552T710 362Q710 253 662 172T529 45T328 0H138ZM74 0V720H180V0H74Z" />
<glyph unicode="E" horiz-adv-x="634" d="M74 0V720H180V0H74ZM126 0V87H574V0H126ZM126 329V416H538V329H126ZM126 633V720H565V633H126Z" />
<glyph unicode="F" horiz-adv-x="598" d="M74 0V720H180V0H74ZM126 299V386H522V299H126ZM126 633V720H549V633H126Z" />
<glyph unicode="G" horiz-adv-x="764" d="M409 -10Q296 -10 214 35T88 163T43 356Q43 466 87 550T211 682T393 730Q475 730 541 700T650 615T701 490H595Q585 559 531 599T396 640Q322 640 267 605T182 507T151 358Q151 271 182 209T272 113T416 79Q476 79 522
96T602 146L705 107Q649 49 576 20T409 -10ZM599 107V328L630 297H415V385H705V107H599Z" />
<glyph unicode="H" horiz-adv-x="731" d="M74 0V720H180V0H74ZM551 0V720H657V0H551ZM126 419H598V331H126V419Z" />
<glyph unicode="I" horiz-adv-x="254" d="M74 0V720H180V0H74Z" />
<glyph unicode="J" horiz-adv-x="441" d="M141 -10Q103 -10 68 -5T17 9V99Q39 90 70 84T133 78Q199 78 232 105T266 193V720H372V189Q372 89 313 40T141 -10Z" />
<glyph unicode="K" horiz-adv-x="702" d="M74 0V720H180V0H74ZM158 374L515 720H660L291 374H158ZM531 0L156 374H291L680 0H531Z" />
<glyph unicode="L" horiz-adv-x="589" d="M74 0V720H180V0H74ZM126 0V87H542V0H126Z" />
<glyph unicode="M" horiz-adv-x="902" d="M74 0V720H238L478 26H424L662 720H828V0H723V677H739L507 0H389L157 671H173V0H74Z" />
<glyph unicode="N" horiz-adv-x="731" d="M74 0V720H197L579 104L555 99V720H657V0H534L152 616L176 621V0H74Z" />
<glyph unicode="O" horiz-adv-x="790" d="M395 -10Q318 -10 254 17T143 95T70 213T43 363Q43 471 88 554T212 683T394 730Q498 730 577 684T701 554T747 362Q747 281 721 213T647 95T536 18T395 -10ZM394 80Q466 80 521 116T607 217T639 364Q639 446 608 508T522
605T394 640Q321 640 267 606T182 509T151 364Q151 280 182 216T267 116T394 80Z" />
<glyph unicode="P" horiz-adv-x="661" d="M74 0V720H379Q457 720 512 694T596 620T626 506Q626 439 597 391T512 315T379 288H155V376H374Q445 376 482 410T520 505Q520 567 483 600T374 633H180V0H74Z" />
<glyph unicode="Q" horiz-adv-x="796" d="M407 -10Q296 -10 214 37T88 169T43 363Q43 471 88 554T212 683T394 730Q498 730 577 684T701 554T747 362Q747 285 722 219T645 107T515 43L407 -10ZM394 75Q468 75 522 112T608 214T639 364Q639 446 608 508T522 605T394
640Q321 640 267 606T182 509T151 364Q151 278 182 214T267 112T394 75ZM407 -10L395 62L777 87V0Q715 0 671 -1T588 -5T507 -8T407 -10Z" />
<glyph unicode="R" horiz-adv-x="660" d="M73 0V720H357Q435 720 490 695T575 624T605 516Q605 454 575 408T490 336T357 310H153V396H354Q426 396 463 427T501 515Q501 571 464 602T354 633H179V0H73ZM489 0L138 363H267L641 0H489Z" />
<glyph unicode="S" horiz-adv-x="623" d="M335 -9Q205 -9 127 53T36 230H139Q148 155 199 116T337 77Q410 77 447 104T485 181Q485 226 460 252T381 296L256 336Q160 367 115 414T70 533Q70 594 100 638T186 706T316 731Q430 731 498 674T577 514H474Q462 582
422 613T312 645Q246 645 209 619T172 546Q172 508 196 483T278 439L409 397Q500 368 543 318T587 192Q587 96 521 44T335 -9Z" />
<glyph unicode="T" horiz-adv-x="656" d="M275 0V633H32V720H624V633H381V0H275Z" />
<glyph unicode="U" horiz-adv-x="708" d="M353 -10Q215 -10 141 71T67 302V720H173V290Q173 187 220 134T353 80Q441 80 488 133T535 290V720H641V300Q641 152 567 71T353 -10Z" />
<glyph unicode="V" horiz-adv-x="731" d="M303 0L32 720H144L382 64H355L593 720H699L427 0H303Z" />
<glyph unicode="W" horiz-adv-x="1088" d="M254 0L45 720H153L336 57H310L484 720H609L784 57H758L941 720H1043L834 0H710L534 645H555L378 0H254Z" />
<glyph unicode="X" horiz-adv-x="697" d="M540 0L318 330L48 720H172L382 408L664 0H540ZM332 407L550 720H664L379 320L332 407ZM365 316L146 0H32L319 403L365 316Z" />
<glyph unicode="Y" horiz-adv-x="688" d="M291 0V314L20 720H148L377 362H322L551 720H668L397 314V0H291Z" />
<glyph unicode="Z" horiz-adv-x="627" d="M53 0V76L468 679L500 633H65V720H571V644L158 43L127 87H579V0H53Z" />
<glyph unicode="[" horiz-adv-x="423" d="M87 -108V750H366V668H183V-26H366V-108H87Z" />
<glyph unicode="\" horiz-adv-x="444" d="M48 757H138L395 -67H305L48 757Z" />
<glyph unicode="]" horiz-adv-x="423" d="M336 750V-108H57V-26H239V668H57V750H336Z" />
<glyph unicode="^" horiz-adv-x="538" d="M150 491H70L223 740H314L467 491H387L240 699H297L150 491Z" />
<glyph unicode="_" horiz-adv-x="446" d="M0 -135V-53H446V-135H0Z" />
<glyph unicode="`" horiz-adv-x="354" d="M222 583L60 740H208L316 583H222Z" />
<glyph unicode="a" horiz-adv-x="546" d="M389 0Q384 19 383 42T381 98H376V341Q376 390 352 414T274 439Q223 439 193 419T157 362H58Q65 434 123 477T278 520Q378 520 428 474T478 337V98Q478 75 481 51T490 0H389ZM213 -10Q135 -10 89 28T43 133Q43 201 91
240T231 294L399 321V248L247 224Q196 216 171 197T145 142Q145 107 168 90T237 72Q297 72 336 101T376 174L389 100Q371 47 325 19T213 -10Z" />
<glyph unicode="b" horiz-adv-x="613" d="M345 -9Q273 -9 225 25T162 122L172 124V0H73V720H177V393L166 396Q183 454 232 487T352 520Q421 520 471 487T549 395T577 257Q577 177 548 117T467 24T345 -9ZM323 77Q391 77 431 125T471 257Q471 340 431 386T322 433Q254
433 214 386T173 254Q173 172 213 125T323 77Z" />
<glyph unicode="c" horiz-adv-x="543" d="M285 -10Q212 -10 155 24T66 119T33 256Q33 333 65 392T155 486T284 520Q345 520 393 497T472 433T512 336H414Q404 381 371 408T286 435Q242 435 209 413T158 351T140 256Q140 202 158 161T209 98T287 75Q336 75 370
101T415 173H513Q503 118 472 77T392 13T285 -10Z" />
<glyph unicode="d" horiz-adv-x="613" d="M441 0V117L451 114Q435 57 385 24T265 -10Q196 -10 145 23T65 115T36 253Q36 333 65 393T146 486T268 519Q341 519 388 485T451 388L437 386V720H540V0H441ZM291 77Q360 77 400 124T440 256Q440 338 400 385T290 433Q222
433 183 386T143 253Q143 170 182 124T291 77Z" />
<glyph unicode="e" horiz-adv-x="567" d="M293 -10Q216 -10 158 24T66 118T33 256Q33 335 65 394T157 487T292 520Q366 520 420 489T504 401T534 268Q534 256 534 246T531 224H103V302H458L432 271Q432 353 395 396T292 439Q221 439 180 391T138 256Q138 169 179
120T295 71Q340 71 373 89T422 144H520Q495 72 436 31T293 -10Z" />
<glyph unicode="f" horiz-adv-x="362" d="M114 0V569Q114 647 158 688T290 730Q310 730 323 728T346 722V642Q339 644 328 646T302 648Q258 648 238 627T218 566V0H114ZM16 427V510H335V427H16Z" />
<glyph unicode="g" horiz-adv-x="613" d="M287 -215Q191 -215 129 -172T53 -56H151Q161 -89 195 -108T288 -127Q363 -127 400 -90T437 20V130L446 128Q431 70 381 37T261 3Q194 3 143 35T64 124T36 259Q36 337 65 396T146 487T269 519Q341 519 388 485T449 387L441
386V510H540V21Q540 -89 473 -152T287 -215ZM292 87Q359 87 399 134T440 263Q440 343 400 389T291 435Q223 435 183 389T143 260Q143 180 183 134T292 87Z" />
<glyph unicode="h" horiz-adv-x="606" d="M73 0V720H177V0H73ZM435 0V328Q435 381 409 407T330 433Q285 433 251 413T197 358T177 275L164 397Q189 454 241 487T362 520Q444 520 491 474T538 352V0H435Z" />
<glyph unicode="i" horiz-adv-x="250" d="M73 0V510H177V0H73ZM68 610V727H183V610H68Z" />
<glyph unicode="j" horiz-adv-x="250" d="M21 -215Q3 -215 -10 -213T-33 -207V-127Q-26 -129 -15 -131T9 -133Q44 -133 58 -118T73 -71V510H177V-74Q177 -141 140 -178T21 -215ZM68 610V727H183V610H68Z" />
<glyph unicode="k" horiz-adv-x="546" d="M73 0V733H177V0H73ZM404 0L153 265L396 510H527L251 242L256 289L537 0H404Z" />
<glyph unicode="l" horiz-adv-x="250" d="M73 0V720H177V0H73Z" />
<glyph unicode="m" horiz-adv-x="931" d="M73 0V510H172V390H177V0H73ZM417 0V333Q417 385 393 409T324 433Q282 433 249 414T196 360T177 278L164 397Q189 454 239 487T353 520Q429 520 474 476T520 360V0H417ZM761 0V333Q761 385 737 409T667 433Q626 433 593
414T540 360T520 278L499 397Q525 454 577 487T695 520Q772 520 818 476T864 357V0H761Z" />
<glyph unicode="n" horiz-adv-x="606" d="M73 0V510H172V390H177V0H73ZM435 0V328Q435 381 409 407T330 433Q285 433 251 413T197 358T177 275L164 397Q189 454 241 487T362 520Q444 520 491 474T538 352V0H435Z" />
<glyph unicode="o" horiz-adv-x="591" d="M295 -10Q217 -10 158 24T66 119T33 257Q33 335 66 394T158 486T295 520Q374 520 433 487T524 394T557 257Q557 180 525 120T433 25T295 -10ZM295 75Q342 75 376 98T431 162T451 258Q451 340 408 387T295 435Q227 435
184 387T140 258Q140 203 159 162T214 98T295 75Z" />
<glyph unicode="p" horiz-adv-x="613" d="M345 -9Q273 -9 226 25T163 122L177 124V-205H73V510H172V393L162 396Q178 454 230 487T352 520Q421 520 471 487T549 395T577 257Q577 177 548 117T467 24T345 -9ZM323 77Q391 77 431 125T471 257Q471 340 431 386T322
433Q254 433 214 386T173 254Q173 172 213 125T323 77Z" />
<glyph unicode="q" horiz-adv-x="613" d="M437 -205V117L451 114Q435 57 385 24T265 -10Q196 -10 145 22T65 114T36 253Q36 333 65 393T146 486T268 519Q341 519 388 485T451 388L441 386V510H540V-205H437ZM291 77Q361 77 400 124T440 256Q440 338 400 385T290
433Q221 433 182 386T143 253Q143 170 182 124T291 77Z" />
<glyph unicode="r" horiz-adv-x="383" d="M73 0V510H172V383H177V0H73ZM177 266L164 387Q182 452 226 486T331 520Q354 520 363 516V418Q358 420 349 420T327 421Q252 421 215 382T177 266Z" />
<glyph unicode="s" horiz-adv-x="483" d="M257 -10Q157 -10 98 34T31 158H127Q134 114 167 91T259 67Q310 67 337 85T364 136Q364 160 349 176T288 204L206 223Q129 242 92 279T54 372Q54 441 105 480T247 520Q336 520 390 480T452 368H356Q350 404 322 423T244
443Q198 443 174 427T149 381Q149 357 167 341T229 314L313 293Q386 275 423 235T460 137Q460 68 407 29T257 -10Z" />
<glyph unicode="t" horiz-adv-x="392" d="M290 -10Q201 -10 160 31T118 154V627L221 666V153Q221 113 242 94T310 75Q328 75 342 78T366 85V1Q355 -4 335 -7T290 -10ZM16 427V510H366V427H16Z" />
<glyph unicode="u" horiz-adv-x="596" d="M239 -10Q188 -10 149 11T89 71T67 158V510H171V182Q171 129 197 103T271 77Q314 77 347 97T400 152T420 235L433 113Q408 57 357 24T239 -10ZM424 0V120H420V510H523V0H424Z" />
<glyph unicode="v" horiz-adv-x="530" d="M219 0L11 510H122L292 47H243L411 510H518L311 0H219Z" />
<glyph unicode="w" horiz-adv-x="783" d="M178 0L22 510H129L235 100H220L349 510H439L568 100H554L659 510H761L605 0H514L385 403H400L269 0H178Z" />
<glyph unicode="x" horiz-adv-x="569" d="M422 0L259 233L52 510H170L319 297L540 0H422ZM266 297L418 510H532L318 226L266 297ZM308 223L144 0H29L258 296L308 223Z" />
<glyph unicode="y" horiz-adv-x="530" d="M111 -205L234 76L255 109L410 510H518L218 -205H111ZM229 0L11 510H124L309 51L229 0Z" />
<glyph unicode="z" horiz-adv-x="505" d="M51 0V73L352 469L382 427H60V510H453V437L153 43L124 83H461V0H51Z" />
<glyph unicode="{" horiz-adv-x="423" d="M276 -108Q214 -108 177 -86T128 -25T124 60L150 186Q161 235 143 257T79 280H37V362H79Q125 362 143 384T150 456L124 582Q115 628 127 666T177 727T276 750H366V668H281Q244 668 227 646T220 583L246 467Q260 407 239
372T176 321Q218 306 239 271T246 175L220 59Q210 18 227 -4T281 -26H366V-108H276Z" />
<glyph unicode="|" horiz-adv-x="238" d="M74 -130V790H164V-130H74Z" />
<glyph unicode="}" horiz-adv-x="423" d="M147 750Q209 750 246 728T296 667T299 582L273 456Q262 407 280 385T343 362H386V280H343Q298 280 280 258T273 186L299 60Q309 14 296 -24T246 -85T147 -108H57V-26H141Q180 -26 196 -4T203 59L177 175Q163 235 183
270T247 321Q204 336 184 371T177 467L203 583Q213 624 197 646T141 668H57V750H147Z" />
<glyph unicode="~" horiz-adv-x="538" d="M386 286Q426 286 455 301T503 345T526 419H457Q452 392 434 380T389 367Q363 367 337 376T282 397T221 419T151 429Q112 429 83 414T35 370T12 296H81Q87 323 104 335T149 348Q176 348 202 339T256 318T315 296T386 286Z" />
<glyph unicode="&#xa0;" horiz-adv-x="197" />
<glyph unicode="&#xa1;" horiz-adv-x="284" d="M85 -205L101 279H183L198 -205H85ZM204 510V386H80V510H204Z" />
<glyph unicode="&#xa2;" horiz-adv-x="543" d="M242 482V616H326V482H242ZM326 20V-109H242V20H326ZM285 -10Q212 -10 155 24T66 119T33 256Q33 333 65 392T155 486T284 520Q345 520 393 497T472 433T512 336H414Q404 381 371 408T286 435Q242 435 209 413T158
351T140 256Q140 202 158 161T209 98T287 75Q336 75 370 101T415 173H513Q503 118 472 77T392 13T285 -10Z" />
<glyph unicode="&#xa3;" horiz-adv-x="594" d="M50 0V88Q95 152 112 198T130 279Q130 313 119 340T92 394T66 452T54 525Q54 586 82 632T165 704T295 730Q372 730 427 704T513 631T551 523H449Q440 583 402 613T300 643Q231 643 196 610T160 523Q160 492 170 465T195
410T220 352T231 286Q231 242 209 186T126 54L119 91H529V0H50ZM18 298V386H453V298H18Z" />
<glyph unicode="&#xa5;" horiz-adv-x="628" d="M261 0V314L20 720H148L351 352H288L491 720H608L367 314V0H261ZM49 249V327H580V249H49ZM269 395H49V473H228L269 395ZM420 473H580V395H374L420 473Z" />
<glyph unicode="&#xa7;" horiz-adv-x="509" d="M271 176L272 244Q324 244 350 264T377 318Q377 350 359 368T298 397L207 420Q139 436 103 475T67 576Q67 646 118 688T260 730Q349 730 404 690T465 577H369Q363 613 335 632T257 651Q211 651 187 633T162 585Q162
556 180 538T242 508L326 487Q399 469 436 427T473 323Q473 252 420 214T271 176ZM249 -67Q160 -67 106 -26T44 87H140Q146 50 175 31T252 12Q299 12 323 30T347 78Q347 107 329 125T267 155L183 176Q110 195 73 237T36 340Q36 412 89 450T239 488L237 419Q185
419 159 399T132 345Q132 314 151 296T211 266L302 244Q371 228 406 188T442 87Q442 17 391 -25T249 -67Z" />
<glyph unicode="&#xa8;" horiz-adv-x="464" d="M289 610V727H404V610H289ZM60 610V727H175V610H60Z" />
<glyph unicode="&#xa9;" horiz-adv-x="837" d="M418 -15Q340 -15 272 14T153 94T72 214T43 360Q43 438 72 506T152 625T272 706T418 735Q496 735 564 706T683 626T764 506T793 360Q793 282 764 214T684 95T564 14T418 -15ZM418 32Q486 32 545 57T649 128T719 233T744
360Q744 427 719 486T649 591T545 662T418 688Q351 688 292 663T188 592T118 487T92 360Q92 293 117 234T188 129T292 58T418 32ZM422 140Q362 140 315 168T242 247T215 361Q215 425 241 474T315 551T422 580Q496 580 547 536T608 420H545Q538 469 505 497T422
525Q358 525 319 480T280 361Q280 287 319 241T422 195Q472 195 505 223T546 300H609Q599 227 548 184T422 140Z" />
<glyph unicode="&#xaa;" horiz-adv-x="373" d="M242 418Q239 430 238 444T236 479H234V620Q234 644 222 656T182 669Q159 669 144 660T125 635H52Q57 678 92 704T185 730Q246 730 278 702T310 618V479Q310 462 312 448T318 418H242ZM139 412Q95 412 69 435T43
497Q43 538 70 564T153 598L246 613V561L166 547Q143 544 131 535T119 508Q119 491 130 482T163 473Q193 473 213 489T234 529L242 480Q230 445 202 429T139 412Z" />
<glyph unicode="&#xab;" horiz-adv-x="521" d="M184 68L52 251L184 434H286L158 251L286 68H184ZM357 68L225 251L357 434H459L331 251L459 68H357Z" />
<glyph unicode="&#xae;" horiz-adv-x="837" d="M418 -15Q340 -15 272 14T153 94T72 214T43 360Q43 438 72 506T152 625T272 706T418 735Q496 735 564 706T683 626T764 506T793 360Q793 282 764 214T684 95T564 14T418 -15ZM418 32Q486 32 545 57T649 128T719 233T744
360Q744 427 719 486T649 591T545 662T418 688Q351 688 292 663T188 592T118 487T92 360Q92 293 117 234T188 129T292 58T418 32ZM270 145V575H442Q510 575 549 544T588 457Q588 370 473 345L477 361Q526 363 553 338T581 267V196Q581 185 582 173T586 145H522Q520
154 519 166T518 196V252Q518 292 497 312T436 332H306V383H439Q480 383 502 401T525 453Q525 486 503 503T439 521H333V145H270Z" />
<glyph unicode="&#xaf;" horiz-adv-x="411" d="M60 634V708H413V634H60Z" />
<glyph unicode="&#xb0;" horiz-adv-x="379" d="M191 449Q151 449 118 468T66 521T47 593Q47 632 66 664T118 716T191 735Q232 735 264 716T314 665T333 593Q333 554 315 521T264 469T191 449ZM191 508Q225 508 248 533T272 593Q272 627 249 651T191 676Q154 676
131 652T107 593Q107 558 130 533T191 508Z" />
<glyph unicode="&#xb4;" horiz-adv-x="354" d="M155 583H60L168 740H316L155 583Z" />
<glyph unicode="&#xb6;" horiz-adv-x="687" d="M320 -130V326H235Q178 326 133 350T61 419T35 520Q35 579 61 624T133 694T238 720H613V-130H519V641H414V-130H320Z" />
<glyph unicode="&#xb7;" horiz-adv-x="124" d="M0 320V444H123V320H0Z" />
<glyph unicode="&#xb8;" horiz-adv-x="301" d="M184 -215Q129 -215 96 -191T60 -124H130Q132 -141 148 -149T185 -157Q204 -157 218 -150T232 -128Q232 -112 213 -102T140 -89L166 12H232L217 -40Q264 -50 284 -73T305 -128Q305 -168 273 -191T184 -215Z" />
<glyph unicode="&#xba;" horiz-adv-x="413" d="M206 412Q158 412 121 432T64 489T43 572Q43 643 88 686T206 730Q280 730 324 687T369 572Q369 502 325 457T206 412ZM206 477Q244 477 267 503T291 573Q291 615 268 640T206 665Q170 665 146 640T122 573Q122 530
146 504T206 477Z" />
<glyph unicode="&#xbb;" horiz-adv-x="521" d="M337 434L469 251L337 68H235L363 251L235 434H337ZM164 434L296 251L164 68H62L190 251L62 434H164Z" />
<glyph unicode="&#xbf;" horiz-adv-x="574" d="M266 -215Q197 -215 144 -193T60 -131T29 -33Q29 13 43 43T80 95T129 134T177 170T214 215T229 279H328Q328 229 314 196T278 139T231 99T184 64T148 24T134 -32Q134 -77 172 -102T271 -128Q332 -128 377 -100T433
-16H535Q527 -78 491 -122T396 -191T266 -215ZM340 510V386H217V510H340Z" />
<glyph unicode="&#xc0;" horiz-adv-x="731" d="M32 0L303 720H395L136 0H32ZM589 0L330 720H427L699 0H589ZM169 287H555V199H169V287ZM356 793L194 950H342L450 793H356Z" />
<glyph unicode="&#xc1;" horiz-adv-x="731" d="M32 0L303 720H395L136 0H32ZM589 0L330 720H427L699 0H589ZM169 287H555V199H169V287ZM375 793H280L388 950H536L375 793Z" />
<glyph unicode="&#xc2;" horiz-adv-x="731" d="M32 0L303 720H395L136 0H32ZM589 0L330 720H427L699 0H589ZM169 287H555V199H169V287ZM174 793L311 950H420L557 793H465L318 927H413L266 793H174Z" />
<glyph unicode="&#xc3;" horiz-adv-x="731" d="M32 0L303 720H395L136 0H32ZM589 0L330 720H427L699 0H589ZM169 287H555V199H169V287ZM442 802Q413 802 392 811T353 833T319 855T285 865Q264 865 251 852T238 811H169Q169 849 184 877T227 922T292 939Q322 939
342 930T379 908T410 886T445 876Q467 876 480 889T493 930H562Q562 894 547 865T505 819T442 802Z" />
<glyph unicode="&#xc4;" horiz-adv-x="731" d="M32 0L303 720H395L136 0H32ZM589 0L330 720H427L699 0H589ZM169 287H555V199H169V287ZM422 820V937H537V820H422ZM193 820V937H308V820H193Z" />
<glyph unicode="&#xc5;" horiz-adv-x="731" d="M32 0L303 720H395L136 0H32ZM589 0L330 720H427L699 0H589ZM169 287H555V199H169V287ZM365 771Q319 771 288 802T257 879Q257 923 288 954T365 986Q411 986 441 955T472 879Q472 834 442 803T365 771ZM365 829Q386
829 399 843T412 879Q412 899 399 913T365 928Q343 928 330 914T317 879Q317 858 330 844T365 829Z" />
<glyph unicode="&#xc6;" horiz-adv-x="952" d="M32 0L303 720H396L136 0H32ZM478 0V720H584V0H478ZM530 0V87H892V0H530ZM227 329V416H856V329H227ZM337 633V720H882V633H337Z" />
<glyph unicode="&#xc7;" horiz-adv-x="744" d="M391 -10Q316 -10 252 17T142 94T69 212T43 361Q43 442 68 509T140 626T251 703T390 730Q474 730 541 697T650 602T703 460H599Q586 545 531 592T391 640Q320 640 266 606T181 509T151 361Q151 277 181 214T266 115T391
80Q475 80 531 127T600 260H705Q694 178 651 118T542 24T391 -10ZM379 -215Q324 -215 291 -191T255 -124H325Q327 -141 343 -149T380 -157Q399 -157 413 -150T427 -128Q427 -112 408 -102T335 -89L361 12H427L412 -40Q459 -50 479 -73T500 -128Q500 -168 468 -191T379
-215Z" />
<glyph unicode="&#xc8;" horiz-adv-x="634" d="M74 0V720H180V0H74ZM126 0V87H574V0H126ZM126 329V416H538V329H126ZM126 633V720H565V633H126ZM318 793L156 950H304L412 793H318Z" />
<glyph unicode="&#xc9;" horiz-adv-x="634" d="M74 0V720H180V0H74ZM126 0V87H574V0H126ZM126 329V416H538V329H126ZM126 633V720H565V633H126ZM338 793H243L351 950H499L338 793Z" />
<glyph unicode="&#xca;" horiz-adv-x="634" d="M74 0V720H180V0H74ZM126 0V87H574V0H126ZM126 329V416H538V329H126ZM126 633V720H565V633H126ZM136 793L273 950H382L519 793H427L280 927H375L228 793H136Z" />
<glyph unicode="&#xcb;" horiz-adv-x="634" d="M74 0V720H180V0H74ZM126 0V87H574V0H126ZM126 329V416H538V329H126ZM126 633V720H565V633H126ZM384 820V937H499V820H384ZM155 820V937H270V820H155Z" />
<glyph unicode="&#xcc;" horiz-adv-x="254" d="M74 0V720H180V0H74ZM118 793L-44 950H104L212 793H118Z" />
<glyph unicode="&#xcd;" horiz-adv-x="254" d="M74 0V720H180V0H74ZM137 793H42L150 950H298L137 793Z" />
<glyph unicode="&#xce;" horiz-adv-x="254" d="M74 0V720H180V0H74ZM-64 793L73 950H182L319 793H227L80 927H175L28 793H-64Z" />
<glyph unicode="&#xcf;" horiz-adv-x="254" d="M74 0V720H180V0H74ZM184 820V937H299V820H184ZM-45 820V937H70V820H-45Z" />
<glyph unicode="&#xd0;" horiz-adv-x="759" d="M3 318V403H384V318H3ZM145 0V88H334Q420 88 481 123T576 220T609 364Q609 445 576 505T482 598T334 632H146V720H334Q450 720 536 676T669 552T717 362Q717 253 669 172T536 45T335 0H145ZM81 0V720H187V0H81Z" />
<glyph unicode="&#xd1;" horiz-adv-x="731" d="M74 0V720H197L579 104L555 99V720H657V0H534L152 616L176 621V0H74ZM442 802Q413 802 392 811T353 833T319 855T285 865Q264 865 251 852T238 811H169Q169 849 184 877T227 922T292 939Q322 939 342 930T379 908T410
886T445 876Q467 876 480 889T493 930H562Q562 894 547 865T505 819T442 802Z" />
<glyph unicode="&#xd2;" horiz-adv-x="790" d="M395 -10Q318 -10 254 17T143 95T70 213T43 363Q43 471 88 554T212 683T394 730Q498 730 577 684T701 554T747 362Q747 281 721 213T647 95T536 18T395 -10ZM394 80Q466 80 521 116T607 217T639 364Q639 446 608
508T522 605T394 640Q321 640 267 606T182 509T151 364Q151 280 182 216T267 116T394 80ZM386 793L224 950H372L480 793H386Z" />
<glyph unicode="&#xd3;" horiz-adv-x="790" d="M395 -10Q318 -10 254 17T143 95T70 213T43 363Q43 471 88 554T212 683T394 730Q498 730 577 684T701 554T747 362Q747 281 721 213T647 95T536 18T395 -10ZM394 80Q466 80 521 116T607 217T639 364Q639 446 608
508T522 605T394 640Q321 640 267 606T182 509T151 364Q151 280 182 216T267 116T394 80ZM405 793H310L418 950H566L405 793Z" />
<glyph unicode="&#xd4;" horiz-adv-x="790" d="M395 -10Q318 -10 254 17T143 95T70 213T43 363Q43 471 88 554T212 683T394 730Q498 730 577 684T701 554T747 362Q747 281 721 213T647 95T536 18T395 -10ZM394 80Q466 80 521 116T607 217T639 364Q639 446 608
508T522 605T394 640Q321 640 267 606T182 509T151 364Q151 280 182 216T267 116T394 80ZM204 793L341 950H450L587 793H495L348 927H443L296 793H204Z" />
<glyph unicode="&#xd5;" horiz-adv-x="790" d="M395 -10Q318 -10 254 17T143 95T70 213T43 363Q43 471 88 554T212 683T394 730Q498 730 577 684T701 554T747 362Q747 281 721 213T647 95T536 18T395 -10ZM394 80Q466 80 521 116T607 217T639 364Q639 446 608
508T522 605T394 640Q321 640 267 606T182 509T151 364Q151 280 182 216T267 116T394 80ZM472 802Q443 802 422 811T383 833T349 855T315 865Q294 865 281 852T268 811H199Q199 849 214 877T257 922T322 939Q352 939 372 930T409 908T440 886T475 876Q497 876 510
889T523 930H592Q592 894 577 865T535 819T472 802Z" />
<glyph unicode="&#xd6;" horiz-adv-x="790" d="M395 -10Q318 -10 254 17T143 95T70 213T43 363Q43 471 88 554T212 683T394 730Q498 730 577 684T701 554T747 362Q747 281 721 213T647 95T536 18T395 -10ZM394 80Q466 80 521 116T607 217T639 364Q639 446 608
508T522 605T394 640Q321 640 267 606T182 509T151 364Q151 280 182 216T267 116T394 80ZM452 820V937H567V820H452ZM223 820V937H338V820H223Z" />
<glyph unicode="&#xd7;" horiz-adv-x="538" d="M419 163L61 522L119 580L477 222L419 163ZM119 163L61 222L419 580L477 522L119 163Z" />
<glyph unicode="&#xd8;" horiz-adv-x="790" d="M115 -10L56 42L671 730L730 678L115 -10ZM395 -10Q318 -10 254 17T143 95T70 213T43 363Q43 471 88 554T212 683T394 730Q498 730 577 684T701 554T747 362Q747 281 721 213T647 95T536 18T395 -10ZM394 80Q466
80 521 116T607 217T639 364Q639 446 608 508T522 605T394 640Q321 640 267 606T182 509T151 364Q151 280 182 216T267 116T394 80Z" />
<glyph unicode="&#xd9;" horiz-adv-x="708" d="M353 -10Q215 -10 141 71T67 302V720H173V290Q173 187 220 134T353 80Q441 80 488 133T535 290V720H641V300Q641 152 567 71T353 -10ZM345 793L183 950H331L439 793H345Z" />
<glyph unicode="&#xda;" horiz-adv-x="708" d="M353 -10Q215 -10 141 71T67 302V720H173V290Q173 187 220 134T353 80Q441 80 488 133T535 290V720H641V300Q641 152 567 71T353 -10ZM364 793H269L377 950H525L364 793Z" />
<glyph unicode="&#xdb;" horiz-adv-x="708" d="M353 -10Q215 -10 141 71T67 302V720H173V290Q173 187 220 134T353 80Q441 80 488 133T535 290V720H641V300Q641 152 567 71T353 -10ZM163 793L300 950H409L546 793H454L307 927H402L255 793H163Z" />
<glyph unicode="&#xdc;" horiz-adv-x="708" d="M353 -10Q215 -10 141 71T67 302V720H173V290Q173 187 220 134T353 80Q441 80 488 133T535 290V720H641V300Q641 152 567 71T353 -10ZM411 820V937H526V820H411ZM182 820V937H297V820H182Z" />
<glyph unicode="&#xdd;" horiz-adv-x="688" d="M291 0V314L20 720H148L377 362H322L551 720H668L397 314V0H291ZM354 793H259L367 950H515L354 793Z" />
<glyph unicode="&#xde;" horiz-adv-x="660" d="M153 157V244H372Q443 244 481 277T519 370Q519 429 481 462T372 496H153V583H377Q455 583 510 557T595 483T625 370Q625 306 595 258T510 183T377 157H153ZM73 0V720H179V0H73Z" />
<glyph unicode="&#xdf;" horiz-adv-x="621" d="M333 -9Q308 -9 289 -6T257 2V85Q271 81 287 78T322 75Q407 75 443 109T480 202Q480 261 440 297T329 334H272V419H323Q356 419 383 432T426 471T442 529Q442 583 408 615T314 648Q252 648 215 610T177 493V0H73V493Q73
602 136 666T314 730Q385 730 437 707T519 640T548 539Q548 488 524 450T459 390T365 369L363 390Q433 390 483 365T560 296T587 195Q587 134 556 88T469 17T333 -9Z" />
<glyph unicode="&#xe0;" horiz-adv-x="546" d="M389 0Q384 19 383 42T381 98H376V341Q376 390 352 414T274 439Q223 439 193 419T157 362H58Q65 434 123 477T278 520Q378 520 428 474T478 337V98Q478 75 481 51T490 0H389ZM213 -10Q135 -10 89 28T43 133Q43 201
91 240T231 294L399 321V248L247 224Q196 216 171 197T145 142Q145 107 168 90T237 72Q297 72 336 101T376 174L389 100Q371 47 325 19T213 -10ZM267 583L105 740H253L361 583H267Z" />
<glyph unicode="&#xe1;" horiz-adv-x="546" d="M389 0Q384 19 383 42T381 98H376V341Q376 390 352 414T274 439Q223 439 193 419T157 362H58Q65 434 123 477T278 520Q378 520 428 474T478 337V98Q478 75 481 51T490 0H389ZM213 -10Q135 -10 89 28T43 133Q43 201
91 240T231 294L399 321V248L247 224Q196 216 171 197T145 142Q145 107 168 90T237 72Q297 72 336 101T376 174L389 100Q371 47 325 19T213 -10ZM286 583H191L299 740H447L286 583Z" />
<glyph unicode="&#xe2;" horiz-adv-x="546" d="M389 0Q384 19 383 42T381 98H376V341Q376 390 352 414T274 439Q223 439 193 419T157 362H58Q65 434 123 477T278 520Q378 520 428 474T478 337V98Q478 75 481 51T490 0H389ZM213 -10Q135 -10 89 28T43 133Q43 201
91 240T231 294L399 321V248L247 224Q196 216 171 197T145 142Q145 107 168 90T237 72Q297 72 336 101T376 174L389 100Q371 47 325 19T213 -10ZM85 583L222 740H331L468 583H376L229 717H324L177 583H85Z" />
<glyph unicode="&#xe3;" horiz-adv-x="546" d="M389 0Q384 19 383 42T381 98H376V341Q376 390 352 414T274 439Q223 439 193 419T157 362H58Q65 434 123 477T278 520Q378 520 428 474T478 337V98Q478 75 481 51T490 0H389ZM213 -10Q135 -10 89 28T43 133Q43 201
91 240T231 294L399 321V248L247 224Q196 216 171 197T145 142Q145 107 168 90T237 72Q297 72 336 101T376 174L389 100Q371 47 325 19T213 -10ZM353 592Q324 592 303 601T264 623T230 645T196 655Q175 655 162 642T149 601H80Q80 639 95 667T138 712T203 729Q233
729 253 720T290 698T321 676T356 666Q378 666 391 679T404 720H473Q473 684 458 655T416 609T353 592Z" />
<glyph unicode="&#xe4;" horiz-adv-x="546" d="M389 0Q384 19 383 42T381 98H376V341Q376 390 352 414T274 439Q223 439 193 419T157 362H58Q65 434 123 477T278 520Q378 520 428 474T478 337V98Q478 75 481 51T490 0H389ZM213 -10Q135 -10 89 28T43 133Q43 201
91 240T231 294L399 321V248L247 224Q196 216 171 197T145 142Q145 107 168 90T237 72Q297 72 336 101T376 174L389 100Q371 47 325 19T213 -10ZM333 610V727H448V610H333ZM104 610V727H219V610H104Z" />
<glyph unicode="&#xe5;" horiz-adv-x="546" d="M389 0Q384 19 383 42T381 98H376V341Q376 390 352 414T274 439Q223 439 193 419T157 362H58Q65 434 123 477T278 520Q378 520 428 474T478 337V98Q478 75 481 51T490 0H389ZM213 -10Q135 -10 89 28T43 133Q43 201
91 240T231 294L399 321V248L247 224Q196 216 171 197T145 142Q145 107 168 90T237 72Q297 72 336 101T376 174L389 100Q371 47 325 19T213 -10ZM276 561Q230 561 199 592T168 669Q168 713 199 744T276 776Q322 776 352 745T383 669Q383 624 353 593T276 561ZM276
619Q297 619 310 633T323 669Q323 689 310 703T276 718Q254 718 241 704T228 669Q228 648 241 634T276 619Z" />
<glyph unicode="&#xe6;" horiz-adv-x="872" d="M369 138V341Q369 390 345 414T270 439Q223 439 193 419T157 362H58Q64 434 120 477T272 520Q369 520 418 474T468 337V138H369ZM214 -10Q136 -10 90 28T43 131Q43 194 87 234T226 289L386 316V243L246 220Q193 212
170 192T146 138Q146 107 169 90T236 72Q273 72 303 85T351 122T369 174L437 140Q405 57 347 24T214 -10ZM610 -10Q537 -10 484 24T403 118T374 256Q374 335 403 394T486 487T610 520Q680 520 731 489T811 401T839 268Q839 256 839 246T836 224H433V302H766L741
271Q741 353 708 396T612 439Q570 439 538 418T487 356T468 256Q468 169 506 120T613 71Q655 71 683 89T726 144H825Q800 72 745 31T610 -10Z" />
<glyph unicode="&#xe7;" horiz-adv-x="543" d="M285 -10Q212 -10 155 24T66 119T33 256Q33 333 65 392T155 486T284 520Q345 520 393 497T472 433T512 336H414Q404 381 371 408T286 435Q242 435 209 413T158 351T140 256Q140 202 158 161T209 98T287 75Q336 75
370 101T415 173H513Q503 118 472 77T392 13T285 -10ZM271 -215Q216 -215 183 -191T147 -124H217Q219 -141 235 -149T272 -157Q291 -157 305 -150T319 -128Q319 -112 300 -102T227 -89L253 12H319L304 -40Q351 -50 371 -73T392 -128Q392 -168 360 -191T271 -215Z"
/>
<glyph unicode="&#xe8;" horiz-adv-x="567" d="M293 -10Q216 -10 158 24T66 118T33 256Q33 335 65 394T157 487T292 520Q366 520 420 489T504 401T534 268Q534 256 534 246T531 224H103V302H458L432 271Q432 353 395 396T292 439Q221 439 180 391T138 256Q138
169 179 120T295 71Q340 71 373 89T422 144H520Q495 72 436 31T293 -10ZM285 583L123 740H271L379 583H285Z" />
<glyph unicode="&#xe9;" horiz-adv-x="567" d="M293 -10Q216 -10 158 24T66 118T33 256Q33 335 65 394T157 487T292 520Q366 520 420 489T504 401T534 268Q534 256 534 246T531 224H103V302H458L432 271Q432 353 395 396T292 439Q221 439 180 391T138 256Q138
169 179 120T295 71Q340 71 373 89T422 144H520Q495 72 436 31T293 -10ZM304 583H209L317 740H465L304 583Z" />
<glyph unicode="&#xea;" horiz-adv-x="567" d="M293 -10Q216 -10 158 24T66 118T33 256Q33 335 65 394T157 487T292 520Q366 520 420 489T504 401T534 268Q534 256 534 246T531 224H103V302H458L432 271Q432 353 395 396T292 439Q221 439 180 391T138 256Q138
169 179 120T295 71Q340 71 373 89T422 144H520Q495 72 436 31T293 -10ZM103 583L240 740H349L486 583H394L247 717H342L195 583H103Z" />
<glyph unicode="&#xeb;" horiz-adv-x="567" d="M293 -10Q216 -10 158 24T66 118T33 256Q33 335 65 394T157 487T292 520Q366 520 420 489T504 401T534 268Q534 256 534 246T531 224H103V302H458L432 271Q432 353 395 396T292 439Q221 439 180 391T138 256Q138
169 179 120T295 71Q340 71 373 89T422 144H520Q495 72 436 31T293 -10ZM351 610V727H466V610H351ZM122 610V727H237V610H122Z" />
<glyph unicode="&#xec;" horiz-adv-x="250" d="M73 0V510H177V0H73ZM372 583L210 740H358L466 583H372Z" />
<glyph unicode="&#xed;" horiz-adv-x="250" d="M73 0V510H177V0H73ZM391 583H296L404 740H552L391 583Z" />
<glyph unicode="&#xee;" horiz-adv-x="250" d="M73 0V510H177V0H73ZM190 583L327 740H436L573 583H481L334 717H429L282 583H190Z" />
<glyph unicode="&#xef;" horiz-adv-x="250" d="M73 0V510H177V0H73ZM438 610V727H553V610H438ZM209 610V727H324V610H209Z" />
<glyph unicode="&#xf0;" horiz-adv-x="600" d="M290 -10Q219 -10 162 19T71 105T37 242Q37 321 70 377T160 464T281 494Q336 494 379 475T451 420T487 338L460 289V354Q460 451 420 518T302 619T109 654L124 730Q227 730 308 704T446 628T534 505T564 338Q564
170 492 80T290 -10ZM289 77Q334 77 369 96T426 154T447 249Q447 303 425 338T368 391T291 409Q229 409 187 368T145 242Q145 187 165 150T217 95T289 77ZM198 519L162 577L448 755L484 698L198 519Z" />
<glyph unicode="&#xf1;" horiz-adv-x="606" d="M73 0V510H172V390H177V0H73ZM435 0V328Q435 381 409 407T330 433Q285 433 251 413T197 358T177 275L164 397Q189 454 241 487T362 520Q444 520 491 474T538 352V0H435ZM407 592Q378 592 357 601T318 623T284 645T250
655Q229 655 216 642T203 601H134Q134 639 149 667T192 712T257 729Q287 729 307 720T344 698T375 676T410 666Q432 666 445 679T458 720H527Q527 684 512 655T470 609T407 592Z" />
<glyph unicode="&#xf2;" horiz-adv-x="591" d="M295 -10Q217 -10 158 24T66 119T33 257Q33 335 66 394T158 486T295 520Q374 520 433 487T524 394T557 257Q557 180 525 120T433 25T295 -10ZM295 75Q342 75 376 98T431 162T451 258Q451 340 408 387T295 435Q227
435 184 387T140 258Q140 203 159 162T214 98T295 75ZM286 583L124 740H272L380 583H286Z" />
<glyph unicode="&#xf3;" horiz-adv-x="591" d="M295 -10Q217 -10 158 24T66 119T33 257Q33 335 66 394T158 486T295 520Q374 520 433 487T524 394T557 257Q557 180 525 120T433 25T295 -10ZM295 75Q342 75 376 98T431 162T451 258Q451 340 408 387T295 435Q227
435 184 387T140 258Q140 203 159 162T214 98T295 75ZM305 583H210L318 740H466L305 583Z" />
<glyph unicode="&#xf4;" horiz-adv-x="591" d="M295 -10Q217 -10 158 24T66 119T33 257Q33 335 66 394T158 486T295 520Q374 520 433 487T524 394T557 257Q557 180 525 120T433 25T295 -10ZM295 75Q342 75 376 98T431 162T451 258Q451 340 408 387T295 435Q227
435 184 387T140 258Q140 203 159 162T214 98T295 75ZM104 583L241 740H350L487 583H395L248 717H343L196 583H104Z" />
<glyph unicode="&#xf5;" horiz-adv-x="591" d="M295 -10Q217 -10 158 24T66 119T33 257Q33 335 66 394T158 486T295 520Q374 520 433 487T524 394T557 257Q557 180 525 120T433 25T295 -10ZM295 75Q342 75 376 98T431 162T451 258Q451 340 408 387T295 435Q227
435 184 387T140 258Q140 203 159 162T214 98T295 75ZM372 592Q343 592 322 601T283 623T249 645T215 655Q194 655 181 642T168 601H99Q99 639 114 667T157 712T222 729Q252 729 272 720T309 698T340 676T375 666Q397 666 410 679T423 720H492Q492 684 477 655T435
609T372 592Z" />
<glyph unicode="&#xf6;" horiz-adv-x="591" d="M295 -10Q217 -10 158 24T66 119T33 257Q33 335 66 394T158 486T295 520Q374 520 433 487T524 394T557 257Q557 180 525 120T433 25T295 -10ZM295 75Q342 75 376 98T431 162T451 258Q451 340 408 387T295 435Q227
435 184 387T140 258Q140 203 159 162T214 98T295 75ZM352 610V727H467V610H352ZM123 610V727H238V610H123Z" />
<glyph unicode="&#xf7;" horiz-adv-x="538" d="M57 330V412H481V330H57ZM269 479Q242 479 224 496T206 543Q206 570 224 588T269 606Q294 606 313 588T332 543Q332 514 313 497T269 479ZM269 137Q242 137 224 154T206 200Q206 228 224 245T269 263Q294 263 313
246T332 200Q332 172 313 155T269 137Z" />
<glyph unicode="&#xf8;" horiz-adv-x="591" d="M295 -10Q217 -10 158 24T66 119T33 257Q33 335 66 394T158 486T295 520Q374 520 433 487T524 394T557 257Q557 180 525 120T433 25T295 -10ZM295 73Q343 73 378 96T432 161T452 258Q452 340 409 388T295 437Q225
437 182 389T138 258Q138 203 158 161T213 96T295 73ZM83 -8L32 42L508 518L558 468L83 -8Z" />
<glyph unicode="&#xf9;" horiz-adv-x="596" d="M239 -10Q188 -10 149 11T89 71T67 158V510H171V182Q171 129 197 103T271 77Q314 77 347 97T400 152T420 235L433 113Q408 57 357 24T239 -10ZM424 0V120H420V510H523V0H424ZM289 583L127 740H275L383 583H289Z" />
<glyph unicode="&#xfa;" horiz-adv-x="596" d="M239 -10Q188 -10 149 11T89 71T67 158V510H171V182Q171 129 197 103T271 77Q314 77 347 97T400 152T420 235L433 113Q408 57 357 24T239 -10ZM424 0V120H420V510H523V0H424ZM309 583H214L322 740H470L309 583Z" />
<glyph unicode="&#xfb;" horiz-adv-x="596" d="M239 -10Q188 -10 149 11T89 71T67 158V510H171V182Q171 129 197 103T271 77Q314 77 347 97T400 152T420 235L433 113Q408 57 357 24T239 -10ZM424 0V120H420V510H523V0H424ZM107 583L244 740H353L490 583H398L251
717H346L199 583H107Z" />
<glyph unicode="&#xfc;" horiz-adv-x="596" d="M239 -10Q188 -10 149 11T89 71T67 158V510H171V182Q171 129 197 103T271 77Q314 77 347 97T400 152T420 235L433 113Q408 57 357 24T239 -10ZM424 0V120H420V510H523V0H424ZM355 610V727H470V610H355ZM126 610V727H241V610H126Z"
/>
<glyph unicode="&#xfd;" horiz-adv-x="530" d="M111 -205L234 76L255 109L410 510H518L218 -205H111ZM229 0L11 510H124L309 51L229 0ZM275 583H180L288 740H436L275 583Z" />
<glyph unicode="&#xfe;" horiz-adv-x="613" d="M345 -9Q273 -9 226 25T163 122L177 124V-205H73V720H177V393L162 396Q178 454 230 487T352 520Q421 520 471 487T549 395T577 257Q577 177 548 117T467 24T345 -9ZM323 77Q392 77 431 125T471 257Q471 340 432 386T322
433Q253 433 213 386T173 254Q173 172 213 125T323 77Z" />
<glyph unicode="&#xff;" horiz-adv-x="530" d="M111 -205L234 76L255 109L410 510H518L218 -205H111ZM229 0L11 510H124L309 51L229 0ZM322 610V727H437V610H322ZM93 610V727H208V610H93Z" />
<glyph unicode="&#x2013;" horiz-adv-x="593" d="M73 231V313H519V231H73Z" />
<glyph unicode="&#x2014;" horiz-adv-x="893" d="M73 231V313H819V231H73Z" />
<glyph unicode="&#x2018;" horiz-adv-x="265" d="M71 480V570Q71 637 101 683T198 740V688Q159 684 145 661T130 591L90 597H197V480H71Z" />
<glyph unicode="&#x2019;" horiz-adv-x="265" d="M67 483V535Q106 539 120 562T135 632L175 626H68V743H194V653Q194 586 164 540T67 483Z" />
<glyph unicode="&#x201a;" horiz-adv-x="260" d="M323 88V140Q358 152 371 176T385 247L426 240H322V363H445V270Q445 201 417 154T323 88Z" />
<glyph unicode="&#x201c;" horiz-adv-x="440" d="M246 480V570Q246 637 276 683T373 740V688Q334 684 320 661T305 591L265 597H372V480H246ZM71 480V570Q71 637 101 683T198 740V688Q159 684 145 661T130 591L90 597H197V480H71Z" />
<glyph unicode="&#x201d;" horiz-adv-x="440" d="M242 483V535Q281 539 295 562T310 632L350 626H243V743H369V653Q369 586 339 540T242 483ZM67 483V535Q106 539 120 562T135 632L175 626H68V743H194V653Q194 586 164 540T67 483Z" />
<glyph unicode="&#x201e;" horiz-adv-x="431" d="M239 -168V-116Q274 -104 287 -80T301 -9L342 -16H238V107H361V14Q361 -55 333 -102T239 -168ZM323 88V140Q358 152 371 176T385 247L426 240H322V363H445V270Q445 201 417 154T323 88Z" />
<glyph unicode="&#x2022;" horiz-adv-x="321" d="M71 281V461H251V281H71Z" />
<glyph unicode="&#x2039;" horiz-adv-x="347" d="M184 68L52 251L184 434H286L158 251L286 68H184Z" />
<glyph unicode="&#x203a;" horiz-adv-x="347" d="M164 68H62L190 251L62 434H164L296 251L164 68Z" />
</font>
</defs>
</svg>
